Головоломка / Inside Out [2015, Мультфильм, Драма, Комедия, Семейный, HDTVRip] Line

Ответить на тему

Статистика раздачи [Обновить пиров]
Размер:  1.45 GB   |    Зарегистрирован:  1 год 1 месяц   |    Скачан:  7 раз
Сидов:  1  [  0 KB/s  ]   Подробная статистика пиров
   
 
Автор Сообщение

Матвей ®

Стаж: 1 год 2 месяца

Сообщений: 236

Откуда: Челябинск


Пост 11-Окт-2015 14:57

[Цитировать]

Головоломка / Inside Out--- Производство: США / Pixar Animation Studios, Walt Disney Pictures
Жанр: Мультфильм, Драма, Комедия, Семейный
Режиссер: Пит Доктер, Роналдо Дель Кармен
Актеры: Льюис Блэк, Минди Кейлинг, Билл Хейдер, Эми Полер, Филлис Смит, Ричард Кайнд, Кейтлин Диас, Дайан Лэйн, Кайл МакЛоклен, Пола Паундстон
Описание:
Райли — обычная 11-летняя школьница, и, как у каждого из нас, ее поведение определяют пять базовых эмоций: Радость, Печаль, Страх, Гнев и Брезгливость. Эмоции живут в сознании девочки и каждый день помогают ей справляться с проблемами, руководя всеми ее поступками. До поры до времени эмоции живут дружно, но вдруг оказывается, что Райли и ее родителям предстоит переезд из небольшого уютного городка в шумный и людный мегаполис. Каждая из эмоций считает, что именно она лучше прочих знает, что нужно делать в этой непростой ситуации, и в голове у девочки наступает полная неразбериха. Чтобы наладить жизнь в большом городе, освоиться в новой школе и подружиться с одноклассниками, эмоциям Райли предстоит снова научиться работать сообща.
КиноПоиск
IMDB
Дата мировой премьеры: 18 мая 2015
Дата премьеры в России: 18 июня 2015, «WDSSPR»
Релиз от: Электричка
Продолжительность: 01:34:34
Качество видео: HDTVRip
Перевод: Дублированный (чистый звук)
Вид субтитров: Отсутствуют
Видео: XviD, 720x400, ~1935 kb/s
Аудио: 48 kHz, AC3, 2 ch, 256 Кбит/с
Семпл: Скачать

MediaInfo:

Код:
Общее
Полное имя                               : Golovolomka.2015.D.HDTVRip.nnm-club.avi
Формат                                   : AVI
Формат/Информация                        : Audio Video Interleave
Размер файла                             : 1,45 Гбайт
Продолжительность                        : 1 ч. 34 м.
Общий поток                              : 2203 Кбит/сек
Название фильма                          : G0l0v0l0Mka.2015.D.WEBRip.ELEKTRI4KA.uniongang.tv
Программа кодирования                    : VirtualDubMod 1.5.10.3 | || (build 2550/release)
Правообладатель                          : UNIONGANG&RUSTORRENTS
Видео
Идентификатор                            : 0
Формат                                   : MPEG-4 Visual
Профиль формата                          : Advanced Simple@L5
Параметр BVOP формата                    : 2
Параметр QPel формата                    : Нет
Параметр GMC формата                     : Без точки перехода
Параметр матрицы формата                 : Default (MPEG)
Идентификатор кодека                     : XVID
Идентификатор кодека/Подсказка           : XviD
Продолжительность                        : 1 ч. 34 м.
Битрейт                                  : 1935 Кбит/сек
Ширина                                   : 720 пикселей
Высота                                   : 400 пикселей
Соотношение сторон                       : 16:9
Частота кадров                           : 30,000 кадров/сек
Цветовое пространство                    : YUV
Субдискретизация насыщенности            : 4:2:0
Битовая глубина                          : 8 бит
Тип развёртки                            : Прогрессивная
Метод сжатия                             : С потерями
Бит/(Пиксели*Кадры)                      : 0.224
Размер потока                            : 1,28 Гбайт (88%)
Библиотека кодирования                   : XviD 1.2.1 (UTC 2008-12-04)
Аудио
Идентификатор                            : 1
Формат                                   : AC-3
Формат/Информация                        : Audio Coding 3
Расширение режима                        : CM (complete main)
Параметр Endianness формата              : Big
Идентификатор кодека                     : 2000
Продолжительность                        : 1 ч. 34 м.
Вид битрейта                             : Постоянный
Битрейт                                  : 256 Кбит/сек
Каналы                                   : 2 канала
Расположение каналов                     : Front: L R
Частота                                  : 48,0 КГц
Метод сжатия                             : С потерями
Размер потока                            : 173 Мбайт (12%)
Выравнивание                             : Разделение по промежуткам
Продолжительность промежутка             : 33  мс. (1,00 видеокадр)
Время предзагрузки промежутка            : 500  мс.

Скриншоты:



Смотреть онлайн

[trackeroc.ru].8584.torrent 
Торрент: Зарегистрирован   [ 2015-10-11 19:39 ]

Скачать торрент

15 KB

Статус: проверено
Скачан: 30 раз
Размер: 1.45 GB
 

Admin (11-окт-15)
Похожие торренты
Форум Тема Автор Размер
Старые игры для PC до 2005 года Devil Inside / Дьявол Шоу (2000) [RUS] BiOS 638 MB
Arcade , Аркады , Платформеры Inside (2016) [Ru/Multi] (5.0.4.29787) RePack by BiOS BiOS 1.25 GB
Arcade , Аркады , Платформеры INSIDE (2016) [RUS|ENG|MULTi11] CONSPIR4CY max+100600 2.31 GB
Arcade , Аркады , Платформеры Inside [RUS/ENG] (2016) (v5.0.4.29787) RePack от xatab Admin 1.05 GB
Зарубежные Головоломка / Inside Out (2015) BDRip [H.264] BiOS 1.46 GB

_________________

[Профиль] [ЛС]
Показать сообщения:    
Ответить на тему

Текущее время: Сегодня 23:43

Часовой пояс: GMT + 4



Вы не можете начинать темы
Вы не можете отвечать на сообщения
Вы не можете редактировать свои сообщения
Вы не можете удалять свои сообщения
Вы не можете голосовать в опросах
Вы не можете прикреплять файлы к сообщениям
Вы можете скачивать файлы