Гримм / Grimm (2017) WEB-DLRip (сезон 6, серии 1-2 из 13) LostFilm

Ответить на тему

Статистика раздачи [Обновить пиров]
Размер:  1.07 GB   |    Зарегистрирован:  22 часа   |    Скачан:  0 раз

Полного источника не было: Никогда

 
 
 
 
Автор Сообщение

BiOS ®

Стаж: 2 года 9 месяцев

Сообщений: 1830

Откуда: Raccoon City


Пост 11-Янв-2017 12:01

[Цитировать]

Гримм / Grimm
«Not your usual suspects»
- Производство: США / GK Productions, Hazy Mills Productions, Universal Television
Жанр: ужасы, фэнтези, драма, детектив
Режиссер: Норберто Барба, Терренс О’Хара, Эрик Ланёвилль
Актеры: Дэвид Джинтоли, Битси Таллок, Сайлас Уэйр Митчелл, Расселл Хорнсби, Саша Ройз, Регги Ли, Клэр Коффи, Бри Тёрнер, Роберт Бланш, Жаклин Тобони и др.
Описание:
Заключительный сезон популярного американского фентези сериала.
После победы над «Черным Когтем» главный герой готовится к ключевой схватке с Шоном Ренаром, который, являясь наполовину колдуном, стал мэром города Портлэнда и решил укрепить свою власть...
Возраст: 18+ (зрителям, достигшим 18 лет)
Продолжительность: ~00:43:00 серия
Качество видео: WEB-DLRip
Перевод: Многоголосый закадровый, профессиональный - LostFilm
Видео: XviD, 720x400 (16:9), ~1500 kbps
Аудио Rus: MP3, 48,0 kHz, 2 ch, 128 kbps — многоголосый закадровый
Аудио Eng: MP3, 48,0 kHz, 2 ch, 128 kbps — оригинал

MediaInfo

Код:
Общее
Формат                                   : AVI
Формат/Информация                        : Audio Video Interleave
Размер файла                             : 546 Мбайт
Продолжительность                        : 42 м. 59 с.
Общий поток                              : 1774 Кбит/сек
Название фильма                          : Grimm.S06E01.WEB-DLRip.Rus.Eng.DV.LostFilm / NNM-Club
Программа кодирования                    : VirtualDubModRus 1.5.10.2 (build 2542/release)
Библиотека кодирования                   : VirtualDubMod build 2542/release
Видео
Идентификатор                            : 0
Формат                                   : MPEG-4 Visual
Профиль формата                          : Advanced Simple@L5
Параметр BVOP формата                    : 2
Параметр QPel формата                    : Нет
Параметр GMC формата                     : Без точки перехода
Параметр матрицы формата                 : Default (H.263)
Идентификатор кодека                     : XVID
Идентификатор кодека/Подсказка           : XviD
Продолжительность                        : 42 м. 59 с.
Битрейт                                  : 1504 Кбит/сек
Ширина                                   : 720 пикселей
Высота                                   : 400 пикселей
Соотношение сторон                       : 16:9
Частота кадров                           : 23,976 (24000/1001) кадра/сек
Цветовое пространство                    : YUV
Субдискретизация насыщенности            : 4:2:0
Битовая глубина                          : 8 бит
Тип развёртки                            : Прогрессивная
Метод сжатия                             : С потерями
Бит/(Пиксели*Кадры)                      : 0.218
Размер потока                            : 463 Мбайт (85%)
Заголовок                                : Rip by DriverV / NNM-Club
Библиотека кодирования                   : XviD 64
Аудио #1
Идентификатор                            : 1
Формат                                   : MPEG Audio
Версия формата                           : Version 1
Профиль формата                          : Layer 3
Режим                                    : Joint stereo
Расширение режима                        : MS Stereo
Идентификатор кодека                     : 55
Идентификатор кодека/Подсказка           : MP3
Продолжительность                        : 42 м. 59 с.
Вид битрейта                             : Постоянный
Битрейт                                  : 128 Кбит/сек
Каналы                                   : 2 канала
Частота                                  : 48,0 КГц
Метод сжатия                             : С потерями
Размер потока                            : 39,4 Мбайт (7%)
Выравнивание                             : Соединение по промежуткам
Продолжительность промежутка             : 42  мс. (1,00 видеокадр)
Время предзагрузки промежутка            : 504  мс.
Аудио #2
Идентификатор                            : 2
Формат                                   : MPEG Audio
Версия формата                           : Version 1
Профиль формата                          : Layer 3
Режим                                    : Joint stereo
Расширение режима                        : MS Stereo
Идентификатор кодека                     : 55
Идентификатор кодека/Подсказка           : MP3
Продолжительность                        : 42 м. 59 с.
Вид битрейта                             : Постоянный
Битрейт                                  : 128 Кбит/сек
Каналы                                   : 2 канала
Частота                                  : 48,0 КГц
Метод сжатия                             : С потерями
Размер потока                            : 39,4 Мбайт (7%)
Выравнивание                             : Соединение по промежуткам
Продолжительность промежутка             : 42  мс. (1,00 видеокадр)
Время предзагрузки промежутка            : 504  мс.
-Скриншоты:


Смотреть онлайн


[trackeroc.ru].17816.torrent 
Торрент: Зарегистрирован   [ Вчера 12:40 ]

Скачать торрент

12 KB

Статус: проверено
Скачан: 5 раз
Размер: 1.07 GB
 

Admin (11-янв-17)
Похожие торренты
Форум Тема Автор Размер
Зарубежные сериалы Гримм / Grimm [сезон 6 серии 1-3 из 13] (2017) WEB-DLRip Admin 1.7 GB
Приключенческие игры Adventure Grimm: Dark Legacy (2016) (ENG) SKIDROW Admin 1.25 GB
Зарубежные сериалы Гримм / Grimm (2011-2015) WEB-DLRip (сезон 1-5, серии 1-110 из 110) LostFilm [MP4|1280x720] BiOS 140.13 GB
Приключенческие игры Adventure RWBY: Grimm Eclipse (2016) [ENG][L] - CODEX max+100600 1.81 GB

_________________
[Профиль] [ЛС]
Показать сообщения:    
Ответить на тему

Текущее время: Сегодня 10:56

Часовой пояс: GMT + 4



Вы не можете начинать темы
Вы не можете отвечать на сообщения
Вы не можете редактировать свои сообщения
Вы не можете удалять свои сообщения
Вы не можете голосовать в опросах
Вы не можете прикреплять файлы к сообщениям
Вы можете скачивать файлы