Гримм / Grimm / Сезон: 1 / Серии: 1-22 (22) [2011-2012] LostFilm

Ответить на тему

Статистика раздачи [Обновить пиров]
Размер:  12.1 GB   |    Зарегистрирован:  1 год 3 месяца   |    Скачан:  3 раза

Полного источника не было: 4 месяца 13 дней

 
 
 
 
Автор Сообщение

Angel ®

Стаж: 1 год 3 месяца

Сообщений: 31


Пост 14-Авг-2015 16:33

[Цитировать]

Гримм / Grimm- Год выпуска: 2011-2012
Страна: США
Жанр: Ужасы, фэнтези, детектив
Продолжительность: ~00:43:00
Перевод: Профессиональный многоголосый закадровый [LostFilm]
Русские субтитры: нет
Субтитры: нет
Режиссёр: Норберто Барба, Холли Дэйл, Дарнелл Мартин, Дж. Кларк Мэтис, Дэвид Соломон, Омар Мадха
В ролях: Дэвид Гвинтоли, Битси Таллоч, Сайлас Уэйр Митчелл, Расселл Хорнсби, Саша Ройз, Регги Ли, Клэр Коффи, Бри Тернер, Джошуа Ли Фрэзиер, Шарон Сакс, Дэнни Бруно, Роберт Бланш, Райан Тернер, Том Хестмарк, Карри Грэм, Эми Гаменик, Паркер Бэгли, Александр Менделюк, Ник Тьюрстон, Хейли Талбот, Мэтт Дотсон, Аарон Томас Рэтлифф, Генри Любатти, Кейт Бертон, Лэни Ойо, Кайл Ваган, Кейси Гриффин, Кэйси Вэнн, Рэнди Шульман, Джой Флац, Софи Митри, Джули Вэй, Рич Кэшин, Джоди Харвуд, Робби Кларк, Этан Эткинсон, Джейк Стрит, Кейт Кокс, Дж.Дж. Моррис, Мэтт Бэйкер, Нана Визитор
Описание: Действие происходит в современном Портленде, где детектив из отдела убийств узнаёт, что он является потомком группы охотников, известных как «Гриммы», которые сражаются, чтобы сохранить человечество в безопасности от сверхъестественных существ. Узнав о своей судьбе, и том, что он является последним из своего рода, он должен защитить каждую живую душу от зловещих персонажей сборника сказок, которые проникли в реальный мир.
Рип и сведение зв. дорожек: Unknоwn
Релиз:
Сэмпл: http://multi-up.com/764781
Качество: HDRip
Формат: AVI
Видео кодек: XviD
Аудио кодек: MP3
Видео: 704x400 (16:9), 23.976 fps, ~1549 kbps, ~0.230 bit/pixel
Аудио Rus: 48 kHz, 2 ch, 128 kbps
Аудио Eng: 48 kHz, 2 ch, 128 kbps

MI

Общее
Полное имя : F:\Grimm.(1.sezon.01.serija.iz.22).2011.XviD.HDRip_Unknown\Grimm.(1.sezon.01.serija.iz.22).2011.XviD.HDRip_Unknown.avi
Формат : AVI
Формат/Информация : Audio Video Interleave
Размер файла : 563 Мбайт
Продолжительность : 43 м.
Общий поток : 1819 Кбит/сек
Программа кодирования : VirtualDubModRus 1.5.10.2 (build 2542/release)
Библиотека кодирования : VirtualDubMod build 2542/release
Видео
Идентификатор : 0
Формат : MPEG-4 Visual
Профиль формата : Advanced Simple@L5
Параметр BVOP формата : 2
Параметр QPel формата : Нет
Параметр GMC формата : Без точки перехода
Параметр матрицы формата : Default (MPEG)
Идентификатор кодека : XVID
Идентификатор кодека/Подсказка : XviD
Продолжительность : 43 м.
Битрейт : 1550 Кбит/сек
Ширина : 704 пикселя
Высота : 400 пикселей
Соотношение сторон : 16:9
Частота кадров : 23,976 кадра/сек
Цветовое пространство : YUV
Субдискретизация насыщенности : 4:2:0
Битовая глубина : 8 бит
Тип развёртки : Прогрессивная
Метод сжатия : С потерями
Бит/(Пиксели*Кадры) : 0.230
Размер потока : 479 Мбайт (85%)
Библиотека кодирования : XviD 1.2.1 (UTC 2008-12-04)
Аудио #1
Идентификатор : 1
Формат : MPEG Audio
Версия формата : Version 1
Профиль формата : Layer 3
Режим : Joint stereo
Расширение режима : MS Stereo
Идентификатор кодека : 55
Идентификатор кодека/Подсказка : MP3
Продолжительность : 43 м.
Вид битрейта : Постоянный
Битрейт : 128 Кбит/сек
Каналы : 2 канала
Частота : 48,0 КГц
Метод сжатия : С потерями
Размер потока : 39,6 Мбайт (7%)
Выравнивание : Соединение по промежуткам
Продолжительность промежутка : 42 мс. (1,00 видеокадр)
Время предзагрузки промежутка : 504 мс.
Аудио #2
Идентификатор : 2
Формат : MPEG Audio
Версия формата : Version 1
Профиль формата : Layer 3
Идентификатор кодека : 55
Идентификатор кодека/Подсказка : MP3
Продолжительность : 43 м.
Вид битрейта : Постоянный
Битрейт : 128 Кбит/сек
Каналы : 2 канала
Частота : 48,0 КГц
Метод сжатия : С потерями
Размер потока : 39,6 Мбайт (7%)
Выравнивание : Соединение по промежуткам
Продолжительность промежутка : 42 мс. (1,00 видеокадр)
Время предзагрузки промежутка : 504 мс.
Библиотека кодирования : LAME3.98r
Настройки программы : -m s -V 4 -q 2 -lowpass 17 -b 128

Скриншоты



Смотреть онлайн

[trackeroc.ru].7524.torrent 
Торрент: Зарегистрирован   [ 2015-08-14 16:33 ]

Скачать торрент

63 KB

Статус: проверено
Скачан: 11 раз
Размер: 12.1 GB
 

BiOS (14-авг-15), Admin (14-авг-15)
Похожие торренты
Форум Тема Автор Размер
Приключенческие игры Adventure Grimm: Dark Legacy (2016) (ENG) SKIDROW Admin 1.25 GB
Зарубежные сериалы Гримм / Grimm (2011-2015) WEB-DLRip (сезон 1-5, серии 1-110 из 110) LostFilm [MP4|1280x720] BiOS 140.13 GB
Приключенческие игры Adventure RWBY: Grimm Eclipse (2016) [ENG][L] - CODEX max+100600 1.81 GB
Action экшены RWBY: Grimm Eclipse v1.0.01rc2 (2016) (ENG) CODEX Admin 1.81 GB
Зарубежные сериалы Гримм / Grimm / Сезон: 5 / Серии: 1-22 (22) [2015] LostFilm Admin 9.67 GB
[Профиль] [ЛС]
Показать сообщения:    
Ответить на тему

Текущее время: Сегодня 17:41

Часовой пояс: GMT + 4



Вы не можете начинать темы
Вы не можете отвечать на сообщения
Вы не можете редактировать свои сообщения
Вы не можете удалять свои сообщения
Вы не можете голосовать в опросах
Вы не можете прикреплять файлы к сообщениям
Вы можете скачивать файлы