Гримм / Grimm / Сезон: 2 / Серии: 1-22 (22) [2012] LostFilm

Ответить на тему

Статистика раздачи [Обновить пиров]
Размер:  10.75 GB   |    Зарегистрирован:  1 год 3 месяца   |    Скачан:  2 раза

Полного источника не было: 4 месяца 6 дней

 
 
 
 
Автор Сообщение

Angel ®

Стаж: 1 год 3 месяца

Сообщений: 31


Пост 14-Авг-2015 16:28

[Цитировать]

Гримм / Grimm-- Год выхода в эфир: 2012
Страна: США | NBC
Жанр: ужасы, фэнтези, драма, детектив
Продолжительность: ~ 00:44:00
Перевод: Профессиональный (многоголосый, закадровый) /LostFilm/
Субтитры: нет
Режиссеры: Норберто Барба, Терренс О’Хара-В ролях: Дэйв Гвинтоли, Расселл Хорнсби, Битси Таллоч, Сайлас Уэйр Митчелл, Саша Ройз, Регги Ли, Клэр Коффи, Айанна Беркшир, Кейт Бёртон, Тим Бэгли-Описание: В центре повествования мрачной и фэнтезийной полицейской драмы от канала NBC - детектив Ник Буркхардт, который думал, что готов к суровой действительности, работая в отделе убийств. Но это было до того, как он начал видеть вещи, которые он не мог объяснить: привлекательная женщина на его глазах превращалась в ведьму, а заурядный Джо в опасного тролля. От единственного живущего родственника Ник узнает правду о своих странных видениях: он не такой как все, а потомок отряда элитных охотников, известных как "Гримм", задача которых не допустить распространения сверхъестественных существ в нашем мире.- -Качество: WEB-DLRip
Формат: AVI [сэмпл]
Видео кодек: XviD
Аудио кодек: MP3
Видео: 720x400 (16:9), 23.976 fps, 1350 kbps (0.195 bit/pixel)
Аудио #1 (rus): 48.0 KHz, 2 ch, 128 Kbps |LostFilm|
Аудио #2 (eng): 48.0 KHz, 2 ch, 128 Kbps |Original|- &
Озвучка: Студия "Кравец"
Рип: LegendKiev-

Скриншоты



MI

ОбщееПолное имя : F:\Grimm.s02.LostFilm\Grimm.s02e01.LostFilm.aviФормат : AVIФормат/Информация : Audio Video InterleaveРазмер файла : 500 МбайтПродолжительность : 43 м.Общий поток : 1617 Кбит/секПрограмма кодирования : VirtualDubMod 1.5.10.2 (build 2540/release)Библиотека кодирования : VirtualDubMod build 2540/release
ВидеоИдентификатор : 0Формат : MPEG-4 VisualПрофиль формата : Advanced Simple@L5Параметр BVOP формата : 1Параметр QPel формата : НетПараметр GMC формата : Без точки переходаПараметр матрицы формата : ВыборочнаяИдентификатор кодека : XVIDИдентификатор кодека/Подсказка : XviDПродолжительность : 43 м.Битрейт : 1347 Кбит/секШирина : 720 пикселейВысота : 400 пикселейСоотношение сторон : 16:9Частота кадров : 23,976 кадра/секЦветовое пространство : YUVСубдискретизация насыщенности : 4:2:0Битовая глубина : 8 битТип развёртки : ПрогрессивнаяМетод сжатия : С потерямиБит/(Пиксели*Кадры) : 0.195Размер потока : 417 Мбайт (83%)Библиотека кодирования : XviD 65
Аудио #1Идентификатор : 1Формат : MPEG AudioВерсия формата : Version 1Профиль формата : Layer 3Режим : Joint stereoРасширение режима : MS StereoИдентификатор кодека : 55Идентификатор кодека/Подсказка : MP3Продолжительность : 43 м.Вид битрейта : ПостоянныйБитрейт : 128 Кбит/секКаналы : 2 каналаЧастота : 48,0 КГцМетод сжатия : С потерямиРазмер потока : 39,6 Мбайт (8%)Выравнивание : Соединение по промежуткамПродолжительность промежутка : 42 мс. (1,00 видеокадр)Время предзагрузки промежутка : 504 мс.
Аудио #2Идентификатор : 2Формат : MPEG AudioВерсия формата : Version 1Профиль формата : Layer 3Режим : Joint stereoРасширение режима : MS StereoИдентификатор кодека : 55Идентификатор кодека/Подсказка : MP3Продолжительность : 43 м.Вид битрейта : ПостоянныйБитрейт : 128 Кбит/секКаналы : 2 каналаЧастота : 48,0 КГцМетод сжатия : С потерямиРазмер потока : 39,6 Мбайт (8%)Выравнивание : Соединение по промежуткамПродолжительность промежутка : 42 мс. (1,00 видеокадр)Время предзагрузки промежутка : 504 мс.
-


Смотреть онлайн

[trackeroc.ru].7523.torrent 
Торрент: Зарегистрирован   [ 2015-08-14 16:29 ]

Скачать торрент

55 KB

Статус: проверено
Скачан: 9 раз
Размер: 10.75 GB
 

BiOS (14-авг-15)
Похожие торренты
Форум Тема Автор Размер
Приключенческие игры Adventure Grimm: Dark Legacy (2016) (ENG) SKIDROW Admin 1.25 GB
Зарубежные сериалы Гримм / Grimm (2011-2015) WEB-DLRip (сезон 1-5, серии 1-110 из 110) LostFilm [MP4|1280x720] BiOS 140.13 GB
Приключенческие игры Adventure RWBY: Grimm Eclipse (2016) [ENG][L] - CODEX max+100600 1.81 GB
Action экшены RWBY: Grimm Eclipse v1.0.01rc2 (2016) (ENG) CODEX Admin 1.81 GB
Зарубежные сериалы Гримм / Grimm / Сезон: 5 / Серии: 1-22 (22) [2015] LostFilm Admin 9.67 GB
[Профиль] [ЛС]
Показать сообщения:    
Ответить на тему

Текущее время: Сегодня 14:01

Часовой пояс: GMT + 4



Вы не можете начинать темы
Вы не можете отвечать на сообщения
Вы не можете редактировать свои сообщения
Вы не можете удалять свои сообщения
Вы не можете голосовать в опросах
Вы не можете прикреплять файлы к сообщениям
Вы можете скачивать файлы