Грязная ложь / Dirty Lies [2016, США, Боевик, триллер, драма, криминал, DVDRip]

Ответить на тему

Статистика раздачи [Обновить пиров]
Размер:  1.37 GB   |    Зарегистрирован:  8 месяцев 9 дней   |    Скачан:  4 раза

Полного источника не было: 2 месяца 11 дней

 
 
 
 
Автор Сообщение

Admin ®

Стаж: 7 месяцев 10 дней

Сообщений: 4447

Откуда: trackeroc.ru


Пост 27-Мар-2016 19:18

[Цитировать]

-Грязная ложь
Dirty Lies
- Страна: США
Жанр: Боевик, триллер, драма, криминал
Год выпуска: 2016
Продолжительность: 01:19:10
Перевод: Любительский (двухголосый закадровый)
Cубтитры: нет-Режиссер: Джэми Маршалл / Jamie Marshall-В ролях: Таня Рэймонд, ЭйДжей Мичалка, Кит Дэвид, Скаут Тейлор-Комптон, Франсиа Рэйса, Брайан Коллен, Марк Л. Янг, Бо Напп, Трой Эванс, Акилла Золл-Описание: Младшему помощнику босса было доверено ожерелье ценой в 1 миллион долларов, однако кто-то из товарищей обворовал его...- -Качество видео: DVDRip
Формат видео: AVI
Видео: 720x384 (1.88:1), 25 fps, XviD build 50 ~2078 kbps avg, 0.30 bit/pixel
Аудио: 48 kHz, AC3 Dolby Digital, 2/0 (L,R) ch, ~384 kbps-

MediaInfo

General
Complete name : D:\Фильмы\Dirty Lies.avi
Format : AVI
Format/Info : Audio Video Interleave
File size : 1.37 GiB
Duration : 1h 19mn
Overall bit rate : 2 472 Kbps
Writing application : VirtualDubMod 1.5.10.3 | www.virtualdub-fr.org || (build 2550/release)
Writing library : VirtualDubMod build 2550/release
Video
ID : 0
Format : MPEG-4 Visual
Format profile : Advanced Simple@L5
Format settings, BVOP : 2
Format settings, QPel : No
Format settings, GMC : No warppoints
Format settings, Matrix : Custom
Codec ID : XVID
Codec ID/Hint : XviD
Duration : 1h 19mn
Bit rate : 2 078 Kbps
Width : 720 pixels
Height : 384 pixels
Display aspect ratio : 1.85:1
Frame rate : 25.000 fps
Color space : YUV
Chroma subsampling : 4:2:0
Bit depth : 8 bits
Scan type : Progressive
Compression mode : Lossy
Bits/(Pixel*Frame) : 0.301
Stream size : 1.15 GiB (84%)
Writing library : XviD 1.2.1 (UTC 2008-12-04)
Audio
ID : 1
Format : AC-3
Format/Info : Audio Coding 3
Mode extension : CM (complete main)
Format settings, Endianness : Big
Codec ID : 2000
Duration : 1h 19mn
Bit rate mode : Constant
Bit rate : 384 Kbps
Channel(s) : 2 channels
Channel positions : Front: L R
Sampling rate : 48.0 KHz
Frame rate : 31.250 fps (1536 spf)
Compression mode : Lossy
Stream size : 218 MiB (16%)
Alignment : Split accross interleaves
Interleave, duration : 40 ms (1.00 video frame)
Interleave, preload duratio : 500 ms
-

Скриншот c названием фильма

-


Смотреть онлайн

[trackerock.ru].12291.torrent 
Торрент: Зарегистрирован   [ 2016-03-27 19:18 ]

Скачать торрент

14 KB

Статус: проверено
Скачан: 16 раз
Размер: 1.37 GB
 

Похожие торренты
Форум Тема Автор Размер
Квесты , я ищу , Поиск предметов Hidden Object Spirits of Mystery 6: Family Lies [CE] / Тайны духов 6: Семейная ложь [P] [RUS / ENG] (2016) HOPE 858 MB

_________________
[Профиль] [ЛС]
Показать сообщения:    
Ответить на тему

Текущее время: Сегодня 22:36

Часовой пояс: GMT + 4



Вы не можете начинать темы
Вы не можете отвечать на сообщения
Вы не можете редактировать свои сообщения
Вы не можете удалять свои сообщения
Вы не можете голосовать в опросах
Вы не можете прикреплять файлы к сообщениям
Вы можете скачивать файлы