Каждому своё / Everybody Wants Some [2016, США, Комедия, WEB-DLRip]

Ответить на тему

Статистика раздачи [Обновить пиров]
Размер:  1.47 GB   |    Зарегистрирован:  7 месяцев 8 дней   |    Скачан:  2 раза
Сидов:  1  [  0 KB/s  ]   Личеров:  1  [  0 KB/s  ]   Подробная статистика пиров
   
 
Автор Сообщение

Admin ®

Стаж: 7 месяцев 14 дней

Сообщений: 4459

Откуда: trackeroc.ru


Пост 01-Май-2016 17:49

[Цитировать]

Каждому своё / Everybody Wants Some«Here for a Good Time Not a Long Time» Страна: США, Paramount Pictures, Detour Filmproduction, Annapurna Pictures
Жанр: комедия
Год выпуска: 2016
Продолжительность: 01:51:51
Перевод: Профессиональный (полное дублирование) (iTunes)
Cубтитры: нет
Оригинальная аудиодорожка: нет
Режиссер: Ричард Линклейтер / Richard Linklater
В ролях: Блейк Дженнер, Джастон Стрит, Райан Гузман, Тайлер Хэклин, Уайатт Расселл, Глен Пауэлл, Темпл Бэйкер, Дж. Куинтон Джонсон, Уилл Бриттейн, Кортни Тейлор
Описание: Сексуальная революция и любовь, пьяные тусовки и травка, брендовые шмотки и топовая музыка… Первокурсник Джейк получает комнату в общежитии колледжа и погружается в порочный водоворот беззаботной жизни Америки 80-х. Он впервые познает вкус свободы и взрослой жизни, пока даже не задумываясь о последствиях.
Группа желает всем приятного просмотра!
Качество видео: WEB-DLRip / WEB-DL (1080p)
Формат видео: AVI
Видео: 720x384 (1.88:1), 25 fps, XviD build 65 ~1490 kbps avg, 0.22 bit/pixel
Audio: 48 kHz, AC3 Dolby Digital, 3/2 (L,C,R,l,r) + LFE ch, ~384 kbps

[align=center]Сравнение[/align]

[url=viewtopic.php?t=5217501]http://rutracker.org/forum/viewtopic.php?t=5217501[/url]
http://screenshotcomparison.com/comparison/171238 + недокроп сверху

MediaInfo

General
Complete name : C:\Users\Никита\Desktop\кино.avi
Format : AVI
Format/Info : Audio Video Interleave
File size : 1.47 GiB
Duration : 1h 51mn
Overall bit rate : 1 884 Kbps
Writing application : VirtualDubMod 1.5.10.2 (build 2540/release)
Writing library : VirtualDubMod build 2540/release
Video
ID : 0
Format : MPEG-4 Visual
Format profile : Advanced Simple@L5
Format settings, BVOP : 1
Format settings, QPel : No
Format settings, GMC : No warppoints
Format settings, Matrix : Custom
Codec ID : XVID
Codec ID/Hint : XviD
Duration : 1h 51mn
Bit rate : 1 491 Kbps
Width : 720 pixels
Height : 384 pixels
Display aspect ratio : 1.85:1
Frame rate : 25.000 fps
Color space : YUV
Chroma subsampling : 4:2:0
Bit depth : 8 bits
Scan type : Progressive
Compression mode : Lossy
Bits/(Pixel*Frame) : 0.216
Stream size : 1.16 GiB (79%)
Writing library : XviD 65
Audio
ID : 1
Format : AC-3
Format/Info : Audio Coding 3
Mode extension : CM (complete main)
Format settings, Endianness : Big
Codec ID : 2000
Duration : 1h 51mn
Bit rate mode : Constant
Bit rate : 384 Kbps
Channel(s) : 6 channels
Channel positions : Front: L C R, Side: L R, LFE
Sampling rate : 48.0 KHz
Frame rate : 31.250 fps (1536 spf)
Compression mode : Lossy
Stream size : 307 MiB (20%)
Alignment : Split accross interleaves
Interleave, duration : 40 ms (1.00 video frame)
Interleave, preload duratio : 500 ms

[align=center]Скриншоты[/align]



Смотреть онлайн

[trackerock.ru].12455.torrent 
Торрент: Зарегистрирован   [ 2016-05-01 17:49 ]

Скачать торрент

15 KB

Статус: проверено
Скачан: 14 раз
Размер: 1.47 GB
 


_________________
[Профиль] [ЛС]
Показать сообщения:    
Ответить на тему

Текущее время: Сегодня 21:19

Часовой пояс: GMT + 4



Вы не можете начинать темы
Вы не можете отвечать на сообщения
Вы не можете редактировать свои сообщения
Вы не можете удалять свои сообщения
Вы не можете голосовать в опросах
Вы не можете прикреплять файлы к сообщениям
Вы можете скачивать файлы