Химик / The Chemist (2015) WEB-DLRip [H.264]

Ответить на тему

Статистика раздачи [Обновить пиров]
Размер:  1.46 GB   |    Зарегистрирован:  10 месяцев 20 дней   |    Скачан:  5 раз

Полного источника не было: 8 дней

 
 
 
 
Автор Сообщение

BiOS ®

Стаж: 2 года 7 месяцев

Сообщений: 1730

Откуда: Raccoon City


Пост 17-Янв-2016 15:25

[Цитировать]

Химик / The Chemist- Производство: США
Жанр: Боевик
Режиссер: Арт Камачо
Актеры: Саша Митчелл, Ричард Грико, Мартин Коув, Патрик Килпатрик, Роберт Миано, Оливье Грюнер, Маршал Хилтон, Нина Бергман, Эшли Этвуд, Стефани Герард
Описание:
Стил - немолодой убийца, который подводит своего работодателя, когда отказывается убить только что встреченную им женщину. Убегая, Стил становится следующей жертвой дуэли между наёмниками - до тех пор, пока не узнает информацию, которая заставляет подвергнуть сомнению все то, что он знал раньше. Запутывая все еще больше, он влюбляется в свою потенциальную мишень.
Дата мировой премьеры: 28 ноября 2015
Продолжительность: 01:41:59
Качество видео: WEB-DLRip (AVC)
Перевод: Профессиональный многоголосый
Субтитры: Отсутствуют
Видео: AVC, 1024x576 (16:9), 25.000 fps, 1 850 Kbps (0.125 bit/pixel)
Аудио: AC-3, 48.0 KHz, 2 ch, 192 Kbps, CBR

MediaInfo:

Код:
Общее
Уникальный идентификатор                 : 249857470792953723959957798081400377592 (0xBBF8CC696019AECBA316DD412EE790F8)
Полное имя                               : C:\NNM\Химик\Himik 2015 WEB-DLRip AVC.mkv
Формат                                   : Matroska
Версия формата                           : Version 4 / Version 2
Размер файла                             : 1,46 Гбайт
Продолжительность                        : 1 ч. 41 м.
Общий поток                              : 2044 Кбит/сек
Дата кодирования                         : UTC 2016-01-14 18:50:43
Программа кодирования                    : mkvmerge v8.3.0 ('Over the Horizon') 64bit
Библиотека кодирования                   : Lavf56.22.100
DURATION                                 : 01:41:59.520000000
NUMBER_OF_FRAMES                         : 191235
NUMBER_OF_BYTES                          : 146868480
_STATISTICS_WRITING_APP                  : mkvmerge v8.3.0 ('Over the Horizon') 64bit
_STATISTICS_WRITING_DATE_UTC             : 2016-01-14 23:02:55
_STATISTICS_TAGS                         : BPS DURATION NUMBER_OF_FRAMES NUMBER_OF_BYTES
Видео
Идентификатор                            : 1
Формат                                   : AVC
Формат/Информация                        : Advanced Video Codec
Профиль формата                          : High@L4.1
Параметр CABAC формата                   : Да
Параметр ReFrames формата                : 11 кадров
Идентификатор кодека                     : V_MPEG4/ISO/AVC
Продолжительность                        : 1 ч. 41 м.
Битрейт                                  : 1850 Кбит/сек
Ширина                                   : 1024 пикселя
Высота                                   : 576 пикселей
Соотношение сторон                       : 16:9
Режим частоты кадров                     : Переменный
Частота кадров                           : 25,000 кадров/сек
Стандарт вещания                         : Component
Цветовое пространство                    : YUV
Субдискретизация насыщенности            : 4:2:0
Битовая глубина                          : 8 бит
Тип развёртки                            : Прогрессивная
Бит/(Пиксели*Кадры)                      : 0.125
Размер потока                            : 1,29 Гбайт (89%)
Библиотека кодирования                   : x264 core 144 r2525
Настройки программы                      : cabac=1 / ref=11 / deblock=1:-2:-2 / analyse=0x3:0x112 / me=umh / subme=9 / psy=1 / psy_rd=1.00:1.00 / mixed_ref=0 / me_range=16 / chroma_me=1 / trellis=1 / 8x8dct=1 / cqm=0 / deadzone=21,11 / fast_pskip=1 / chroma_qp_offset=-4 / threads=6 / lookahead_threads=1 / sliced_threads=0 / nr=0 / decimate=1 / interlaced=0 / bluray_compat=0 / constrained_intra=0 / bframes=11 / b_pyramid=2 / b_adapt=2 / b_bias=6 / direct=3 / weightb=0 / open_gop=0 / weightp=1 / keyint=250 / keyint_min=25 / scenecut=49 / intra_refresh=0 / rc_lookahead=40 / rc=2pass / mbtree=1 / bitrate=1850 / ratetol=1.0 / qcomp=0.80 / qpmin=4 / qpmax=69 / qpstep=11 / cplxblur=20.0 / qblur=0.5 / ip_ratio=1.00 / aq=3:1.00
Default                                  : Да
Forced                                   : Нет
DURATION                                 : 01:41:59.360000000
NUMBER_OF_FRAMES                         : 152984
NUMBER_OF_BYTES                          : 1414955425
_STATISTICS_WRITING_APP                  : mkvmerge v8.3.0 ('Over the Horizon') 64bit
_STATISTICS_WRITING_DATE_UTC             : 2016-01-14 23:02:55
_STATISTICS_TAGS                         : BPS DURATION NUMBER_OF_FRAMES NUMBER_OF_BYTES
Аудио
Идентификатор                            : 2
Формат                                   : AC-3
Формат/Информация                        : Audio Coding 3
Расширение режима                        : CM (complete main)
Идентификатор кодека                     : A_AC3
Продолжительность                        : 1 ч. 41 м.
Вид битрейта                             : Постоянный
Битрейт                                  : 192 Кбит/сек
Каналы                                   : 2 канала
Расположение каналов                     : Front: L R
Частота                                  : 48,0 КГц
Битовая глубина                          : 16 бит
Метод сжатия                             : С потерями
Задержка видео                           : -80 мс.
Размер потока                            : 140 Мбайт (9%)
Язык                                     : Russian
Default                                  : Да
Forced                                   : Нет
-Скриншоты:


Смотреть онлайн

[trackeroc.ru].11041.torrent 
Торрент: Зарегистрирован   [ 2016-01-17 15:25 ]

Скачать торрент

15 KB

Статус: проверено
Скачан: 32 раз
Размер: 1.46 GB
 

Admin (17-янв-16)

_________________
[Профиль] [ЛС]
Показать сообщения:    
Ответить на тему

Текущее время: Сегодня 18:05

Часовой пояс: GMT + 4



Вы не можете начинать темы
Вы не можете отвечать на сообщения
Вы не можете редактировать свои сообщения
Вы не можете удалять свои сообщения
Вы не можете голосовать в опросах
Вы не можете прикреплять файлы к сообщениям
Вы можете скачивать файлы