Хитмэн: Агент 47 / Hitman: Agent 47 (2015) HDRip

Ответить на тему

Статистика раздачи [Обновить пиров]
Размер:  1.37 GB   |    Зарегистрирован:  1 год   |    Скачан:  1 раз

Полного источника не было: 4 месяца 25 дней

 
 
 
 
Автор Сообщение

BiOS ®

Стаж: 2 года 7 месяцев

Сообщений: 1735

Откуда: Raccoon City


Пост 27-Окт-2015 00:45

[Цитировать]

Хитмэн: Агент 47 / Hitman: Agent 47 - Производство: Германия, США / Twentieth Century Fox Film Corporation, TSG Entertainment, Fox International Productions
Жанр: Боевик, Триллер, Криминал
Режиссер: Александр Бах
Продюсер: Адриан Аскариа, Чарльз Гордон, Алекс Янг
Актеры: Руперт Френд, Анджела Бейби, Дэн Баккедаль, Шарлин Бек, Михаэль Борнхюттер, Нильс Брункхорст, Михаэлла Каспар, Майкл Коркоран
Описание:
История об элитном убийце, созданном при помощи генной инженерии, который объединяется с женщиной, чтобы помочь ей найти отца и раскрыть тайну своего происхождения.
Дата мировой премьеры: 19 августа 2015
Дата премьеры в России: 3 сентября 2015, «Двадцатый Век Фокс СНГ»
Продолжительность: 01:36:17
Качество видео: HDRip
Перевод: Дублированный (Лицензия)
Субтитры: Отсутствуют
Видео: XviD, 1575 kb/s, 720x304
Аудио: AC3, 6 ch, 448 Кбит/с

MediaInfo:

Код:
Общее
Полное имя                               : F:\Agent.X1tmen.47.2015.D.HDRip.NNM-CLUB.avi
Формат                                   : AVI
Формат/Информация                        : Audio Video Interleave
Размер файла                             : 1,37 Гбайт
Продолжительность                        : 1 ч. 36 м.
Общий поток                              : 2032 Кбит/сек
Программа кодирования                    : VirtualDubMod 1.5.10.2 (build 2540/release)
Библиотека кодирования                   : VirtualDubMod build 2540/release
Видео
Идентификатор                            : 0
Формат                                   : MPEG-4 Visual
Профиль формата                          : Advanced Simple@L5
Параметр BVOP формата                    : 2
Параметр QPel формата                    : Нет
Параметр GMC формата                     : Без точки перехода
Параметр матрицы формата                 : Default (MPEG)
Идентификатор кодека                     : XVID
Идентификатор кодека/Подсказка           : XviD
Продолжительность                        : 1 ч. 36 м.
Битрейт                                  : 1575 Кбит/сек
Ширина                                   : 720 пикселей
Высота                                   : 304 пикселя
Соотношение сторон                       : 2,35:1
Частота кадров                           : 23,976 кадра/сек
Цветовое пространство                    : YUV
Субдискретизация насыщенности            : 4:2:0
Битовая глубина                          : 8 бит
Тип развёртки                            : Прогрессивная
Метод сжатия                             : С потерями
Бит/(Пиксели*Кадры)                      : 0.300
Размер потока                            : 1,06 Гбайт (77%)
Библиотека кодирования                   : XviD 1.2.1 (UTC 2008-12-04)
Аудио
Идентификатор                            : 1
Формат                                   : AC-3
Формат/Информация                        : Audio Coding 3
Расширение режима                        : CM (complete main)
Параметр Endianness формата              : Big
Идентификатор кодека                     : 2000
Продолжительность                        : 1 ч. 36 м.
Вид битрейта                             : Постоянный
Битрейт                                  : 448 Кбит/сек
Каналы                                   : 6 каналов
Расположение каналов                     : Front: L C R, Side: L R, LFE
Частота                                  : 48,0 КГц
Битовая глубина                          : 16 бит
Метод сжатия                             : С потерями
Размер потока                            : 309 Мбайт (22%)
Выравнивание                             : Разделение по промежуткам
Продолжительность промежутка             : 42  мс. (1,00 видеокадр)
Время предзагрузки промежутка            : 500  мс.
-Скриншоты:


Смотреть онлайн

[trackeroc.ru].9273.torrent 
Торрент: Зарегистрирован   [ 2015-11-18 01:09 ]

Скачать торрент

14 KB

Статус: проверено
Скачан: 36 раз
Размер: 1.37 GB
 

Admin (26-окт-15)
Похожие торренты
Форум Тема Автор Размер
Зарубежные сериалы Агент / Поворот / Turn [сезон 3 серии 1-10] (2016) WEB-DLRip Admin 5.81 GB
Зарубежные сериалы Агент Картер / Agent Carter (2016) (сезон 2, серии 1-10) Admin 4.92 GB
Боевики Анаклет: Секретный агент / Anacleto: Agente secreto (2015) HDRip Admin 1.37 GB
Зарубежные сериалы Агент Икс / Agent X [серии 1-10] (2015) Admin 4.49 GB

_________________
[Профиль] [ЛС]
Показать сообщения:    
Ответить на тему

Текущее время: Сегодня 23:58

Часовой пояс: GMT + 4



Вы не можете начинать темы
Вы не можете отвечать на сообщения
Вы не можете редактировать свои сообщения
Вы не можете удалять свои сообщения
Вы не можете голосовать в опросах
Вы не можете прикреплять файлы к сообщениям
Вы можете скачивать файлы