Холодное блюдо [серии 1-2 из 2] (Глеб Якубовский) [2015, Мелодрама, HDTVRip]

Ответить на тему

Статистика раздачи [Обновить пиров]
Размер:  2.73 GB   |    Зарегистрирован:  1 год 1 месяц   |    Скачан:  3 раза
DL-List: Нет

Полного источника не было: 3 месяца 19 дней

 
 
 
 
Автор Сообщение

Матвей ®

Стаж: 1 год 2 месяца

Сообщений: 236

Откуда: Челябинск


Пост 10-Окт-2015 17:03

[Цитировать]

Холодное блюдо (серии 1-2 из 2) -- Производство: Россия / продюсерский центр "Фабула"
Жанр: Мелодрама
Режиссер: Глеб Якубовский
Актеры: Евгения Нохрина, Алексей Демидов, Павел Яскевич, Александр Суцковер, Вячеслав Павлють, Олег Ткачёв, Ольга Сизова и др.
Описание:
Когда жених Жени Олег погибает в автокатастрофе по вине пьяного водителя, то она жаждет только одного: чтобы Костю Стрельцова, совершившего наезд, посадили надолго.
Но этого не случается, так как шалопай Костя - сын местного олигарха, и отец неоднократно спасал его от ответственности.
Тогда Женя решает, что свершит правосудие сама и добьется того, чтобы Костя оказался за решеткой...

КиноПоиск
Продолжительность: внимание ~ 01:30:00 серия
Качество видео: HDTVRip
Видео: Xvid, 720x400, ~1950 Кбит/с
Аудио: AC3, 2 ch, 192 Кбит/с, CBR

Mediainfo:

Код:
Общее
Полное имя                               : D:\МОЯ\torrent\Холодное блюдо.2015.HDTVRip\01.Холодное блюдо.2015.HDTVRip.avi
Формат                                   : AVI
Формат/Информация                        : Audio Video Interleave
Размер файла                             : 1,37 Гбайт
Продолжительность                        : 1 ч. 31 м.
Общий поток                              : 2147 Кбит/сек
Программа кодирования                    : VirtualDubMod 1.5.10.3 | [url=http://www.virtualdub-fr.org]www.virtualdub-fr.org[/url] || (build 2550/release)
Библиотека кодирования                   : VirtualDubMod build 2550/release
Видео
Идентификатор                            : 0
Формат                                   : MPEG-4 Visual
Профиль формата                          : Advanced Simple@L5
Параметр BVOP формата                    : 1
Параметр QPel формата                    : Нет
Параметр GMC формата                     : Без точки перехода
Параметр матрицы формата                 : Выборочная
Идентификатор кодека                     : XVID
Идентификатор кодека/Подсказка           : XviD
Продолжительность                        : 1 ч. 31 м.
Битрейт                                  : 1945 Кбит/сек
Ширина                                   : 720 пикселей
Высота                                   : 400 пикселей
Соотношение сторон                       : 16:9
Частота кадров                           : 25,000 кадров/сек
Цветовое пространство                    : YUV
Субдискретизация насыщенности            : 4:2:0
Битовая глубина                          : 8 бит
Тип развёртки                            : Прогрессивная
Метод сжатия                             : С потерями
Бит/(Пиксели*Кадры)                      : 0.270
Размер потока                            : 1,24 Гбайт (91%)
Библиотека кодирования                   : XviD 73
Аудио
Идентификатор                            : 1
Формат                                   : AC-3
Формат/Информация                        : Audio Coding 3
Расширение режима                        : CM (complete main)
Параметр Endianness формата              : Big
Идентификатор кодека                     : 2000
Продолжительность                        : 1 ч. 31 м.
Вид битрейта                             : Постоянный
Битрейт                                  : 192 Кбит/сек
Каналы                                   : 2 канала
Расположение каналов                     : Front: L R
Частота                                  : 48,0 КГц
Метод сжатия                             : С потерями
Размер потока                            : 125 Мбайт (9%)
Выравнивание                             : Разделение по промежуткам
Продолжительность промежутка             : 40  мс. (1,00 видеокадр)
Время предзагрузки промежутка            : 500  мс.

Скриншоты:



Смотреть онлайн

[trackeroc.ru].8558.torrent 
Торрент: Зарегистрирован   [ 2015-10-10 17:03 ]

Скачать торрент

15 KB

Статус: проверено
Скачан: 14 раз
Размер: 2.73 GB
 

Похожие торренты
Форум Тема Автор Размер
Зарубежные сериалы Супердевушка / Supergirl (2016) (Сезон 2, серии 1-8 из 22) Admin 3.91 GB
Зарубежные сериалы Нация Z / Z Nation /Сезон: 3 / Серии: 1-13 из 14 Admin 6.35 GB
Зарубежные сериалы Легенды завтрашнего дня / DC's Legends of Tomorrow (2016) (сезон 2, серии 1-7 из 13) Admin 3.42 GB
Зарубежные сериалы Эш против Зловещих мертвецов / Ash vs Evil Dead (2016) WEBRip (сезон 2, серии 1-9 из 10) Пучков BiOS 2.8 GB
Зарубежные сериалы Ходячие мертвецы / The Walking Dead (2016) WEB-DLRip (сезон 7, серии 1-7 из 16) Admin 4.04 GB

_________________

[Профиль] [ЛС]
Показать сообщения:    
Ответить на тему

Текущее время: Сегодня 04:46

Часовой пояс: GMT + 4



Вы не можете начинать темы
Вы не можете отвечать на сообщения
Вы не можете редактировать свои сообщения
Вы не можете удалять свои сообщения
Вы не можете голосовать в опросах
Вы не можете прикреплять файлы к сообщениям
Вы можете скачивать файлы