Холоп (2019) CamRip [H.264/720p-LQ] [AD] скачать торрент

Reply to topic

DL-List and Torrent activity [Update пиров]
Size:  2.91 GB   |    Registered:  19 days   |    Completed:  0 times
Seeders:  6  [  105 KB/s  ]   Leechers:  2  [  11 MB/s  ]   Show peers in full details
 
 
 
 
Author Message

BiOS ®

Longevity: 5 years 9 months

Posts: 2408

Location: Earth


Post 05-Jan-2020 05:29

[Quote]

Холоп - Производство: Россия / Yellow, Black & White
Жанр: Комедия
Режиссер: Клим Шипенко
Продюсер: Эдуард Илоян, Таймураз Бадзиев, Вячеслав Дусмухаметов
Актеры: Милош Бикович, Александра Бортич, Александр Самойленко, Иван Охлобыстин, Мария Миронова, Олег Комаров, Ольга Дибцева, Кирилл Нагиев, Сергей Соцердотский, Софья Зайка
Описание:
Молодой мажор Гриша заигрался в красивую жизнь и решил, что ему всё дозволено. Он натворил много дел, и теперь ему грозит тюрьма. Чтобы исправить своего сына, отчаявшийся отец-олигарх идёт на крайние меры. Вместе со своим старинным другом-психологом он придумывает уникальный проект: на базе заброшенной деревни воссоздаётся атмосфера России девятнадцатого века. Гриша попадает в подстроенную аварию и якобы переносится в прошлое. На самом деле, над ним проводится изощрённый психологический эксперимент - избалованного мажора превращают в обычного холопа Гришку, живущего в хлеву на территории барской усадьбы. Его окружают актёры, чья цель - изменить его жизнь и личность. За каждым его движением пристально следит команда психолога с помощью множества камер. Грише предстоит заново научиться общаться с людьми, ценить простые удовольствия, работать, а также обрести истинную любовь.

Возраст: 12+ (зрителям, достигшим 12 лет)
Дата российской премьеры: 26 декабря 2019, «Централ Партнершип»
Продолжительность: 01:43:16
Качество видео: CamRip
Перевод: Не требуется (русский)
Субтитры: Отсутствуют
Реклама: Присутствует баннер
Видео: AVC/H.264, 1280x536, 3655 Kbps
Аудио: АС3, 2 ch, 48 kHz, 384 Kbps | Русский

MediaInfo:

Общее
Формат : Matroska
Версия формата : Version 4
Размер файла : 2,91 Гбайт
Продолжительность : 1 ч. 43 м.
Режим общего битрейта : Переменный
Общий поток : 4041 Кбит/сек
Дата кодирования : UTC 2020-01-04 13:46:39
Программа кодирования : mkvmerge v8.3.0 ('Over the Horizon') 64bit
Библиотека кодирования : libebml v1.3.1 + libmatroska v1.4.2
Видео
Идентификатор : 1
Формат : AVC
Формат/Информация : Advanced Video Codec
Профиль формата : High@L4.1
Настройки формата : CABAC / 4 Ref Frames
Параметр CABAC формата : Да
Параметр RefFrames формата : 4 кадра
Идентификатор кодека : V_MPEG4/ISO/AVC
Продолжительность : 1 ч. 43 м.
Вид битрейта : Переменный
Битрейт : 3655 Кбит/сек
Максимальный битрейт : 4000 Кбит/сек
Ширина : 1280 пикселей
Высота : 536 пикселей
Соотношение сторон : 2,40:1
Режим частоты кадров : Постоянный
Частота кадров : 23,976 (24000/1001) кадра/сек
Стандарт вещания : Component
Цветовое пространство : YUV
Субдискретизация насыщенности : 4:2:0
Битовая глубина : 8 бит
Тип развёртки : Прогрессивная
Бит/(Пиксели*Кадры) : 0.222
Размер потока : 2,64 Гбайт (90%)
Язык : Russian
Default : Да
Forced : Нет
Цветовой диапазон : Limited
Основные цвета : BT.709
Характеристики трансфера : BT.709
Коэффициенты матрицы : BT.709
Аудио
Идентификатор : 2
Формат : AC-3
Формат/Информация : Audio Coding 3
Коммерческое название : Dolby Digital
Идентификатор кодека : A_AC3
Продолжительность : 1 ч. 43 м.
Вид битрейта : Постоянный
Битрейт : 384 Кбит/сек
Каналы : 2 канала
ChannelLayout : L R
Частота : 48,0 КГц
Частота кадров : 31,250 кадров/сек (1536 SPF)
Битовая глубина : 16 бит
Метод сжатия : С потерями
Размер потока : 284 Мбайт (10%)
Язык : Russian
ServiceKind/String : Complete Main
Default : Да
Forced : Нет
-Скриншоты:


Смотреть онлайн


[trackeroc.org].29739.torrent 
Torrent: Registered   [ 2020-01-05 05:29 ]

Скачать торрент

15 KB

Status: T temporary
Completed: 25 times
Size: 2.91 GB
 

Admin (05-янв-20)
Similar torrent
Forum Topic Author Size
Strategy, Стратегии Workers & Resources: Soviet Republic (2019) [Ru/Multi] (0.8.0.14) [Early Access] Admin 772 MB
Cимуляторы Totally Accurate Battle Simulator v0.8.7c (2019) (ENG) Early Access Admin 1.71 GB
Strategy, Стратегии Automachef v1.1.0 [Lunar Update] (2019) (ENG) Admin 806 MB
Arcade Supraland v1.13.2 [RUS/ENG] (2019) GOG Admin 2.24 GB
Cимуляторы PC Building Simulator - NZXT Workshop v1.6.5 (2019) (RUS/ENG/Multi7) RePack от xatab Admin 2.18 GB

_________________
[Profile] [PM]
Display posts from previous:    
Reply to topic

The time now is: Today 23:16

All times are GMT + 4 Hours



You cannot post new topics in this forum
You cannot reply to topics in this forum
You cannot edit your posts in this forum
You cannot delete your posts in this forum
You cannot vote in polls in this forum
You cannot attach files in this forum
You can download files in this forum