Хороший динозавр / The Good Dinosaur (2015) НDRip | Чистый звук

Ответить на тему

Статистика раздачи [Обновить пиров]
Размер:  1.45 GB   |    Зарегистрирован:  10 месяцев   |    Скачан:  4 раза

Сидов:

Пользователь ULR Отдано Скачано Отдача Загрузка
Anonymous 0 - - - -
Anonymous 0 33 MB - 2 KB/s -
показаны данные только за текущую сессию
 
 
 
 
Автор Сообщение

BiOS ®

Стаж: 2 года 7 месяцев

Сообщений: 1738

Откуда: Raccoon City


Пост 07-Фев-2016 06:08

[Цитировать]

Хороший динозавр / The Good Dinosaur - Производство: США \ Pixar Animation Studios, Walt Disney Pictures
Жанр: мультфильм, фэнтези, комедия, приключения, семейный
Режиссер: Питер Сон
Персонажи: Джеффри Райт, Фрэнсис МакДорманд, Малиа Нипай-Падилья, Райан Типл, Джек МакГроу, Маркус Скрибнер, Рэймонд Очоа, Джек Брайт, Питер Сон, Стив Зан
Описание:
По сюжету динозавры не вымерли, а эволюционировали в разумных существ и живут и здравствуют на Земле. А вот люди остались на довольно примитивной стадии развития. Фильм расскажет историю дружбы динозавра и маленького мальчика.
Дата мировой премьеры: 10 ноября 2015
Дата премьеры в России: 26 ноября 2015
Дата выхода DVD/Blu-ray релиза: 22 марта 2016
Продолжительность: 01:33:14
Качество видео: НDRip
Перевод: Дублированный (Чистый звук)
Вид субтитров: Отсутствуют
Видео: Xvid, 720x304, ~1924 Kbps
Аудио: MP3, 2 ch, 160 kbps, CBR
Семпл: Скачать

Mediainfo:

Код:
General
Complete name               : С:\Horoshij_dinozavr_2015_D_WEBRip_1400MB_[NNM-Club].avi
Format                      : AVI
Format/Info                 : Audio Video Interleave
File size                   : 1.36 GiB
Duration                    : 1h 33mn
Overall bit rate            : 2 095 Kbps
Writing application         : VirtualDubMod 1.5.10.2 (build 2540/release)
Writing library             : VirtualDubMod build 2540/release
Video
ID                          : 0
Format                      : MPEG-4 Visual
Format profile              : Advanced Simple@L5
Format settings, BVOP       : 2
Format settings, QPel       : No
Format settings, GMC        : No warppoints
Format settings, Matrix     : Default (H.263)
Muxing mode                 : Packed bitstream
Codec ID                    : XVID
Codec ID/Hint               : XviD
Duration                    : 1h 33mn
Bit rate                    : 1 924 Kbps
Width                       : 720 pixels
Height                      : 304 pixels
Display aspect ratio        : 2.35:1
Frame rate                  : 30.000 fps
Color space                 : YUV
Chroma subsampling          : 4:2:0
Bit depth                   : 8 bits
Scan type                   : Progressive
Compression mode            : Lossy
Bits/(Pixel*Frame)          : 0.293
Stream size                 : 1.25 GiB (92%)
Writing library             : XviD 66
Audio
ID                          : 1
Format                      : MPEG Audio
Format version              : Version 1
Format profile              : Layer 3
Mode                        : Joint stereo
Mode extension              : MS Stereo
Codec ID                    : 55
Codec ID/Hint               : MP3
Duration                    : 1h 33mn
Bit rate mode               : Constant
Bit rate                    : 160 Kbps
Channel(s)                  : 2 channels
Sampling rate               : 48.0 KHz
Compression mode            : Lossy
Stream size                 : 107 MiB (8%)
Alignment                   : Aligned on interleaves
Interleave, duration        : 33 ms (1.00 video frame)
Interleave, preload duratio : 504 ms
-Скриншоты:


Смотреть онлайн

[trackeroc.ru].11520.torrent 
Торрент: Зарегистрирован   [ 2016-02-10 11:04 ]

Скачать торрент

15 KB

Статус: проверено
Скачан: 26 раз
Размер: 1.45 GB
 

Admin (07-фев-16)
Похожие торренты
Форум Тема Автор Размер
Документальные Трейлеры Проект: Динозавр / T.Rex: Autopsy (2015) HDTV [H.264/1080i] BiOS 7.68 GB

_________________
[Профиль] [ЛС]
Показать сообщения:    
Ответить на тему

Текущее время: Сегодня 20:28

Часовой пояс: GMT + 4



Вы не можете начинать темы
Вы не можете отвечать на сообщения
Вы не можете редактировать свои сообщения
Вы не можете удалять свои сообщения
Вы не можете голосовать в опросах
Вы не можете прикреплять файлы к сообщениям
Вы можете скачивать файлы