Хранитель Луны / Mune, le gardien de la lune (2014) WEBRip [720p-LQ] Line

Ответить на тему

Статистика раздачи [Обновить пиров]
Размер:  1.82 GB   |    Зарегистрирован:  1 год 1 месяц   |    Скачан:  5 раз

Полного источника не было: 3 месяца 27 дней

 
 
 
 
Автор Сообщение

Матвей ®

Стаж: 1 год 2 месяца

Сообщений: 236

Откуда: Челябинск


Пост 12-Окт-2015 21:25

[Цитировать]

Хранитель луны / Mune, le gardien de la lune
«Он не спасет мир. Он спасет пять миров!»
- Производство: Франция
Жанр: Приключения, Сказка
Режиссер: Александр Эбоян, Бенуа Филиппон
Персонажи:
Александр Ревва, Наталия Медведева, Василий Буткевич, Алексей Багдасаров, Илья Барабанов, Алексей Розин, Сергей Чихачев, Александр Вартанов, Артур Бесчастный, Григорий Калинин, Александр Новиков
Описание:
На диковинной планете, где смена дня и ночи осуществляется вручную, юного фавна Мьюна неожиданно избирают хранителем Луны. Но к своему ужасу, он почти сразу теряет ее! Воспользовавшись этим, царь подземного мира Некрос крадет и гасит Солнце. Теперь, чтобы спасти планету, Мьюн вместе с отважной девочкой из воска Глим и заносчивым Сохоном, хранителем Солнца, должны отправиться в удивительное и опасное путешествие.

КиноПоиск
IMDB
Продолжительность: 01:21:14
Качество видео: WEBRip
Перевод: Дублированный
Видео: AVC/H.264, 1280x536, ~2750 Кбит/с
Аудио: AC3, 2 ch, 448 Кбит/сек, CBR

Mediainfo:

Код:
Общее
Уникальный идентификатор                 : 236830150851174323037863681022172884252 (0xB22BD3F2F204533AA8B5DA5789306D1C)
Полное имя                               : D:\FILMЬl\OCTBRR\Hranitell.Lunii.RU.mkv
Формат                                   : Matroska
Версия формата                           : Version 4 / Version 2
Размер файла                             : 1,82 Гбайт
Продолжительность                        : 1 ч. 21 м.
Общий поток                              : 3199 Кбит/сек
Дата кодирования                         : UTC 2015-10-11 15:03:22
Программа кодирования                    : mkvmerge v8.3.0 ('Over the Horizon') 64bit
Библиотека кодирования                   : libebml v1.3.1 + libmatroska v1.4.2
DURATION                                 : 01:21:13.824000000
NUMBER_OF_FRAMES                         : 152307
NUMBER_OF_BYTES                          : 272934144
_STATISTICS_WRITING_APP                  : mkvmerge v8.3.0 ('Over the Horizon') 64bit
_STATISTICS_WRITING_DATE_UTC             : 2015-10-11 15:03:22
_STATISTICS_TAGS                         : BPS DURATION NUMBER_OF_FRAMES NUMBER_OF_BYTES
Видео
Идентификатор                            : 1
Формат                                   : AVC
Формат/Информация                        : Advanced Video Codec
Профиль формата                          : [url=mailto:High@L4.1]High@L4.1[/url]
Параметр CABAC формата                   : Да
Параметр ReFrames формата                : 4 кадра
Идентификатор кодека                     : V_MPEG4/ISO/AVC
Продолжительность                        : 1 ч. 21 м.
Битрейт                                  : 2750 Кбит/сек
Ширина                                   : 1280 пикселей
Высота                                   : 536 пикселей
Соотношение сторон                       : 2,40:1
Режим частоты кадров                     : Постоянный
Частота кадров                           : 30,000 кадров/сек
Цветовое пространство                    : YUV
Субдискретизация насыщенности            : 4:2:0
Битовая глубина                          : 8 бит
Тип развёртки                            : Прогрессивная
Бит/(Пиксели*Кадры)                      : 0.134
Размер потока                            : 1,52 Гбайт (84%)
Библиотека кодирования                   : x264 core 146 r2538 121396c
Настройки программы                      : cabac=1 / ref=3 / deblock=1:-3:-3 / analyse=0x3:0x113 / me=umh / subme=7 / psy=1 / psy_rd=1.00:0.00 / mixed_ref=1 / me_range=22 / chroma_me=1 / trellis=2 / 8x8dct=1 / cqm=0 / deadzone=21,11 / fast_pskip=0 / chroma_qp_offset=-2 / threads=12 / lookahead_threads=2 / sliced_threads=0 / nr=0 / decimate=1 / interlaced=0 / bluray_compat=0 / constrained_intra=0 / bframes=3 / b_pyramid=2 / b_adapt=2 / b_bias=0 / direct=3 / weightb=1 / open_gop=0 / weightp=2 / keyint=250 / keyint_min=25 / scenecut=40 / intra_refresh=0 / rc_lookahead=50 / rc=2pass / mbtree=1 / bitrate=2750 / ratetol=1.0 / qcomp=0.60 / qpmin=0 / qpmax=69 / qpstep=4 / cplxblur=20.0 / qblur=0.5 / vbv_maxrate=14000 / vbv_bufsize=14000 / nal_hrd=none / filler=0 / ip_ratio=1.40 / aq=1:1.00
Язык                                     : English
Default                                  : Да
Forced                                   : Нет
DURATION                                 : 01:21:13.761000000
NUMBER_OF_FRAMES                         : 146213
NUMBER_OF_BYTES                          : 1674931125
_STATISTICS_WRITING_APP                  : mkvmerge v8.3.0 ('Over the Horizon') 64bit
_STATISTICS_WRITING_DATE_UTC             : 2015-10-11 15:03:22
_STATISTICS_TAGS                         : BPS DURATION NUMBER_OF_FRAMES NUMBER_OF_BYTES
Аудио
Идентификатор                            : 2
Формат                                   : AC-3
Формат/Информация                        : Audio Coding 3
Расширение режима                        : CM (complete main)
Параметр Endianness формата              : Big
Идентификатор кодека                     : A_AC3
Продолжительность                        : 1 ч. 21 м.
Вид битрейта                             : Постоянный
Битрейт                                  : 448 Кбит/сек
Каналы                                   : 2 канала
Расположение каналов                     : Front: L R
Частота                                  : 48,0 КГц
Метод сжатия                             : С потерями
Размер потока                            : 260 Мбайт (14%)
Язык                                     : Russian
Default                                  : Да
Forced                                   : Нет
Скриншоты:


Смотреть онлайн

[trackeroc.ru].8644.torrent 
 СЕРЕБРЯНАЯ РАЗДАЧА! СКАЧАННОЕ ЗАСЧИТЫВАЕТСЯ ТОЛЬКО НАПОЛОВИНУ! 
Торрент: Зарегистрирован   [ 2015-10-12 21:25 ]

Скачать торрент

19 KB

Статус: проверено
Скачан: 22 раз
Размер: 1.82 GB
 

Admin (12-окт-15)
Похожие торренты
Форум Тема Автор Размер
Российские сериалы Обратная сторона Луны (2012) SATRip (серии 1-16 из 16) BiOS 9.55 GB
Квесты , я ищу , Поиск предметов Hidden Object Graven: The Purple Moon Prophecy/Грейвен: Пророчество багровой луны (2014) (Big Fish Games) (RUS) [P] HOPE 814 MB

_________________

[Профиль] [ЛС]
Показать сообщения:    
Ответить на тему

Текущее время: Сегодня 05:49

Часовой пояс: GMT + 4



Вы не можете начинать темы
Вы не можете отвечать на сообщения
Вы не можете редактировать свои сообщения
Вы не можете удалять свои сообщения
Вы не можете голосовать в опросах
Вы не можете прикреплять файлы к сообщениям
Вы можете скачивать файлы