И шарик вернется [серии 1-8 из 8] (Валерий Девятилов) [2015, мелодрама, SATRip]

Ответить на тему

Статистика раздачи [Обновить пиров]
Размер:  4.3 GB   |    Зарегистрирован:  1 год 1 месяц   |    Скачан:  2 раза

Полного источника не было: 5 месяцев 5 дней

 
 
 
 
Автор Сообщение

Матвей ®

Стаж: 1 год 2 месяца

Сообщений: 236

Откуда: Челябинск


Пост 15-Окт-2015 12:51

[Цитировать]

И шарик вернется (серии 1-8 из 8)-- Производство: Россия, Кинокомпания "Русское"
Жанр: мелодрама
Режиссер: Валерий Девятилов
Актеры: Татьяна Космачёва, Полина Филоненко, Олеся Фаттахова, Юлия Юрченко, Екатерина Травова, Павел Кузьмин, Наталья Муравьевская, Елена Лотова, Родион Галюченко, Дмитрий Зеничев, Дмитрий Мазуров, Владимир Колганов, Денис Юченков и др.
Описание:
Таня, Вера, Шура и Светик — одноклассницы и закадычные подруги. Непохожие друг на друга, но всюду неразлучные девчонки, кажется, и по жизни пойдут рука об руку. Но на школьном выпускном происходит страшное событие, вдребезги разбившее радужные мечты о светлом и счастливом мире. Спасая подругу Шуру от хулиганов, Тане не удается уберечься самой, и девушку ... Подруги не приходят ей на помощь — каждая оказывается увлечена своими делами. После произошедшей трагедии дружба распадается, как карточный домик — Таня не может простить предательства, хочет забыть прошлое и начать жизнь с чистого листа. Девушкам предстоит пройти немало испытаний, переоценить свои поступки и научиться прощать, прежде чем обрести свой путь, найти счастье, и понять, что они связаны судьбой…
КиноПоиск
Дата премьеры в РФ: 2015
Релиз от: Files-x
Продолжительность: ~ 00:46:00 серия
Качество видео: SATRip
Видео: XviD, 720x400, ~1500 kb/s
Аудио: AC-3, 2 ch, 192 kb/s, CBR

MediaInfo:

Общее
Полное имя : D:\И шарик вернется (2015) SATRip\01.I.sharik.vernetsia..2015.SATRip.Files-x.avi
Формат : AVI
Формат/Информация : Audio Video Interleave
Размер файла : 550 Мбайт
Продолжительность : 45 м.
Общий поток : 1700 Кбит/сек
Программа кодирования : VirtualDubMod 1.5.10.3 | www.virtualdub-fr.org || (build 2550/release)
Библиотека кодирования : VirtualDubMod build 2550/release
Видео
Идентификатор : 0
Формат : MPEG-4 Visual
Профиль формата : Advanced Simple@L5
Параметр BVOP формата : 1
Параметр QPel формата : Нет
Параметр GMC формата : Без точки перехода
Параметр матрицы формата : Выборочная
Идентификатор кодека : XVID
Идентификатор кодека/Подсказка : XviD
Продолжительность : 45 м.
Битрейт : 1498 Кбит/сек
Ширина : 720 пикселей
Высота : 400 пикселей
Соотношение сторон : 16:9
Частота кадров : 24,000 кадра/сек
Цветовое пространство : YUV
Субдискретизация насыщенности : 4:2:0
Битовая глубина : 8 бит
Тип развёртки : Прогрессивная
Метод сжатия : С потерями
Бит/(Пиксели*Кадры) : 0.217
Размер потока : 485 Мбайт (88%)
Библиотека кодирования : XviD 73
Аудио
Идентификатор : 1
Формат : AC-3
Формат/Информация : Audio Coding 3
Расширение режима : CM (complete main)
Параметр Endianness формата : Big
Идентификатор кодека : 2000
Продолжительность : 45 м.
Вид битрейта : Постоянный
Битрейт : 192 Кбит/сек
Каналы : 2 канала
Расположение каналов : Front: L R
Частота : 48,0 КГц
Метод сжатия : С потерями
Размер потока : 62,1 Мбайт (11%)
Выравнивание : Разделение по промежуткам
Продолжительность промежутка : 42 мс. (1,00 видеокадр)
Время предзагрузки промежутка : 500 мс.

Скриншоты:



Смотреть онлайн

[trackeroc.ru].8813.torrent 
 СЕРЕБРЯНАЯ РАЗДАЧА! СКАЧАННОЕ ЗАСЧИТЫВАЕТСЯ ТОЛЬКО НАПОЛОВИНУ! 
Торрент: Зарегистрирован   [ 2015-10-15 12:51 ]

Скачать торрент

23 KB

Статус: проверено
Скачан: 15 раз
Размер: 4.3 GB
 


_________________

[Профиль] [ЛС]
Показать сообщения:    
Ответить на тему

Текущее время: Сегодня 14:02

Часовой пояс: GMT + 4



Вы не можете начинать темы
Вы не можете отвечать на сообщения
Вы не можете редактировать свои сообщения
Вы не можете удалять свои сообщения
Вы не можете голосовать в опросах
Вы не можете прикреплять файлы к сообщениям
Вы можете скачивать файлы