Четыре комнаты / Four Rooms (1995) BDRip

Ответить на тему

Статистика раздачи [Обновить пиров]
Размер:  1.46 GB   |    Зарегистрирован:  6 месяцев 20 дней   |    Скачан:  1 раз
Сидов:  1  [  0 KB/s  ]   Подробная статистика пиров
   
 
Автор Сообщение

BiOS ®

Стаж: 2 года 7 месяцев

Сообщений: 1730

Откуда: Raccoon City


Пост 16-Май-2016 15:44

[Цитировать]

Четыре комнаты / Four Rooms «Twelve outrageous guests. Four scandalous requests. And one lone bellhop, in his first day on the job, who's in for the wildest New year's Eve of his life»- Производство: США / A Band Apart, Miramax Films
Жанр: фэнтези, комедия
Режиссер: Эллисон Андерс, Александр Рокуэлл, Роберт Родригес
Продюсер: Лоуренс Бендер, Пол Хеллерман, Скотт Ламберт
Актеры: Тим Рот, Мадонна, Дэвид Провэл, Мариса Томей, Антонио Бандерас, Квентин Тарантино, Брюс Уиллис, Айони Скай, Сальма Хайек, Валерия Голино, Аманда Де Кадене, Сэмми Дэвис
Описание:
Озорная комедия состоит из четырех новелл (каждый режиссёр сделал по одной), связанных одним героем — коридорным Тедом, вышедшим на работу накануне Нового года.
Он попадает на шабаш ведьм, чуть не погибает от руки ревнивого мужа, еле уносит ноги от шаловливых детишек гангстера, принимает участие в странном пари эксцентричных господ.
Но, несмотря на все сомнительные приключения, коридорный сохраняет невозмутимость в любых, самых невероятных ситуациях.
Возраст: 18+ (зрителям, достигшим 18 лет. запрещено для детей)
Рейтинг MPAA: R (лицам до 17 лет обязательно присутствие взрослого)
Дата мировой премьеры: 16 сентября 1995
Релиз на DVD: 16 августа 2001, «Premier Digital»
Релиз на Blu-Ray: 11 декабря 2013, «Кармен Видео»

Продолжительность: 01:37:48
Качество: BDRip
Перевод: Профессиональный (многоголосый закадровый), Профессиональный (двухголосый закадровый) R5
Субтитры: Отсутствуют
Видео: XviD, 720x384, (1.85:1), 1 737 kbps, 23.976 fps
Аудио: AC3, 2 ch, 192 kbps - MVO
Аудио: AC3, 2 ch, 192 kbps - DVO

MediaInfo:

Код:
General
Format                      : AVI
Format/Info                 : Audio Video Interleave
File size                   : 1.46 GiB
Duration                    : 1h 37mn
Overall bit rate            : 2 135 Kbps
Director                    : nigoz
Original source form/Distri : BD-Remux
Writing application         : VirtualDubMod 1.5.10.3 | www.virtualdub-fr.org || (build 2550/release)
Writing library             : VirtualDubMod build 2550/release
Copyright                   : torrents.by
Video
ID                          : 0
Format                      : MPEG-4 Visual
Format profile              : Advanced Simple@L5
Format settings, BVOP       : 1
Format settings, QPel       : No
Format settings, GMC        : No warppoints
Format settings, Matrix     : Custom
Codec ID                    : XVID
Codec ID/Hint               : XviD
Duration                    : 1h 37mn
Bit rate                    : 1 737 Kbps
Width                       : 720 pixels
Height                      : 384 pixels
Display aspect ratio        : 1.85:1
Frame rate                  : 23.976 (23976/1000) fps
Color space                 : YUV
Chroma subsampling          : 4:2:0
Bit depth                   : 8 bits
Scan type                   : Progressive
Compression mode            : Lossy
Bits/(Pixel*Frame)          : 0.262
Stream size                 : 1.19 GiB (81%)
Writing library             : XviD 63
Audio #1
ID                          : 1
Format                      : AC-3
Format/Info                 : Audio Coding 3
Mode extension              : CM (complete main)
Format settings, Endianness : Big
Codec ID                    : 2000
Duration                    : 1h 37mn
Bit rate mode               : Constant
Bit rate                    : 192 Kbps
Channel(s)                  : 2 channels
Channel positions           : Front: L R
Sampling rate               : 48.0 KHz
Frame rate                  : 31.250 fps (1536 spf)
Compression mode            : Lossy
Stream size                 : 134 MiB (9%)
Alignment                   : Split accross interleaves
Interleave, duration        : 42 ms (1.00 video frame)
Interleave, preload duratio : 500 ms
Audio #2
ID                          : 2
Format                      : AC-3
Format/Info                 : Audio Coding 3
Mode extension              : CM (complete main)
Format settings, Endianness : Big
Codec ID                    : 2000
Duration                    : 1h 37mn
Bit rate mode               : Constant
Bit rate                    : 192 Kbps
Channel(s)                  : 2 channels
Channel positions           : Front: L R
Sampling rate               : 48.0 KHz
Frame rate                  : 31.250 fps (1536 spf)
Compression mode            : Lossy
Stream size                 : 134 MiB (9%)
Alignment                   : Split accross interleaves
Interleave, duration        : 42 ms (1.00 video frame)
Interleave, preload duratio : 500 ms
-Скриншоты:


Смотреть онлайн

[trackeroc.ru].12705.torrent 
Торрент: Зарегистрирован   [ 2016-05-16 15:44 ]

Скачать торрент

15 KB

Статус: проверено
Скачан: 35 раз
Размер: 1.46 GB
 

Admin (16-май-16)
Похожие торренты
Форум Тема Автор Размер
Квесты , я ищу , Поиск предметов Hidden Object Затерянные Земли. Четыре Всадника/Lost Lands: The Four Horsemen Collector's Edition (2015) (Nevosoft) (RUS) [P] HOPE 1 GB
Квесты , я ищу , Поиск предметов Hidden Object Lost Lands 2: The Four Horsemen Collectors Edition/Затерянные земли 2. Четыре всадника (2014) (Alawar) (RUS) [P] HOPE 1.01 GB
Квесты , я ищу , Поиск предметов Hidden Object Lost Lands 2: The Four Horsemen Collector's Edition /Потерянные земли: Четыре всадника (2015) (Big Fish Games) (RUS) [P] HOPE 1.01 GB

_________________
[Профиль] [ЛС]
Показать сообщения:    
Ответить на тему

Текущее время: Сегодня 06:45

Часовой пояс: GMT + 4



Вы не можете начинать темы
Вы не можете отвечать на сообщения
Вы не можете редактировать свои сообщения
Вы не можете удалять свои сообщения
Вы не можете голосовать в опросах
Вы не можете прикреплять файлы к сообщениям
Вы можете скачивать файлы