Иностранец / The Foreigner (2017) WEB-DLRip | iTunes скачать торрент

Ответить на тему

Статистика раздачи [Обновить пиров]
Размер:  1.37 GB   |    Зарегистрирован:  6 месяцев 24 дня   |    Скачан:  4 раза

Полного источника не было: 3 месяца 7 дней

 
 
 
 
 
Автор Сообщение

BiOS ®

Стаж: 4 года 3 месяца

Сообщений: 2045

Откуда: Raccoon City


Пост 26-Дек-2017 06:40

[Цитировать]

Иностранец / The Foreigner «Иногда месть — это лучшая справедливость»- Производство: Великобритания, Китай, США
Студия: thefyzz, SR Media, Huayi Brothers, STX Entertainment
Жанр: Боевик, триллер, драма
Режиссер: Мартин Кэмпбелл
Актеры: Джеки Чан, Пирс Броснан, Кэти Льюнг, Руфус Джонс, Марк Тэнди, Каолан Бирн, Аарон Монахэн
Описание:
В центре сюжета — ветеран вьетнамской войны Нгуен Нго Мин, убивавший сначала американцев, а затем вьетнамцев. Герой, отсидевший после победы в тюрьме, сбегает с семьёй из страны в Гонконг. Однако тайские пираты насилуют и убивают двух его старших дочерей, после чего маршрут Мина меняется. Он оказывается в Лондоне, где открывает китайский ресторан в южной части города и с гордостью наблюдает за взрослением младшей дочери, которая превращается в красивую молодую женщину. В тот момент, когда он думает, что все несчастья и ужасы его семьи позади, дочь и жена погибают в теракте, устроенном IRA. Видя, что власти не слишком рьяно разыскивают террористов, Мин решает самостоятельно разыскать и уничтожить преступников.
Продолжительность: 01:53:00
Качество видео: WEB-DLRip
Перевод: Дублированный [iTunes]
Формат: AVI
Качество: WEB-DLRip
Видео: XviD, 720x304, 24 fps, 1451 kbps
Звук: AC3, 6 ch, 384 kbps
Субтитры: Нет

Mediainfo:

Формат : AVI
Формат/Информация : Audio Video Interleave
Размер файла : 1,37 Гбайт
Продолжительность : 1 ч. 53 м.
Общий поток : 1727 Кбит/сек
Программа кодирования : VirtualDubMod 1.5.10.2 (build 2540/release)
Формат оригинала/Имя : Movie
Видео
Идентификатор : 0
Формат : MPEG-4 Visual
Профиль формата : Advanced Simple@L5
Настройки формата : BVOP2
Параметр BVOP формата : 2
Параметр QPel формата : Нет
Параметр GMC формата : Без точки перехода
Параметр матрицы формата : Default (MPEG)
Идентификатор кодека : XVID
Идентификатор кодека/Подсказка : XviD
Продолжительность : 1 ч. 53 м.
Битрейт : 1334 Кбит/сек
Ширина : 720 пикселей
Высота : 304 пикселя
Соотношение сторон : 2,35:1
Частота кадров : 24,000 кадра/сек
Цветовое пространство : YUV
Субдискретизация насыщенности : 4:2:0
Битовая глубина : 8 бит
Тип развёртки : Прогрессивная
Метод сжатия : С потерями
Бит/(Пиксели*Кадры) : 0.254
Размер потока : 1,06 Гбайт (77%)
Библиотека кодирования : XviD 1.2.1 (UTC 2008-12-04)
Аудио
Идентификатор : 1
Формат : AC-3
Формат/Информация : Audio Coding 3
Идентификатор кодека : 2000
Продолжительность : 1 ч. 53 м.
Вид битрейта : Постоянный
Битрейт : 384 Кбит/сек
Каналы : 6 каналов
Расположение каналов : Front: L C R, Side: L R, LFE
Частота : 48,0 КГц
Частота кадров : 31,250 кадров/сек (1536 SPF)
Битовая глубина : 16 бит
Метод сжатия : С потерями
Размер потока : 311 Мбайт (22%)
Выравнивание : Разделение по промежуткам
Продолжительность промежутка : 42 мс. (1,00 видеокадр)
Время предзагрузки промежутка : 500 мс.
ServiceKind/String : Complete Main
-Скриншоты:


Смотреть онлайн


[trackeroc.ru].23492.torrent 
Торрент: Зарегистрирован   [ 2017-12-26 06:40 ]

Скачать торрент

14 KB

Статус: проверено
Скачан: 26 раз
Размер: 1.37 GB
 

Admin (26-дек-17)

Похожие торренты
Форум Тема Автор Размер
Российские Самуил Маршак - Петрушка-иностранец (1977) SATRip (Театр кукол им. C. Образцова) BiOS 323 MB
[Профиль] [ЛС]
Показать сообщения:    
Ответить на тему

Текущее время: Сегодня 19:26

Часовой пояс: GMT + 4



Вы не можете начинать темы
Вы не можете отвечать на сообщения
Вы не можете редактировать свои сообщения
Вы не можете удалять свои сообщения
Вы не можете голосовать в опросах
Вы не можете прикреплять файлы к сообщениям
Вы можете скачивать файлы