Иные / Freaks (2018) WEB-DLRip скачать торрент

Reply to topic

DL-List and Torrent activity [Update пиров]
Size:  1.46 GB   |    Registered:  8 days   |    Completed:  0 times
Seeders:  4  [  10 KB/s  ]   Leechers:  1  [  7 MB/s  ]   Show peers in full details
 
 
 
 
Author Message

BiOS ®

Longevity: 5 years 7 months

Posts: 2374

Location: Earth


Post 29-Nov-2019 00:44

[Quote]

Иные / Freaks
«Они выглядят как мы. Но они — не мы»
- Производство: Канада, США / Amazing, Bloomgarden Films, My Way Entertainment
Жанр: Фантастика, триллер, драма
Режиссер: Зак Липовски, Адам Б. Стейн
Актеры: Эмиль Хирш, Брюс Дерн, Грэйс Пак, Аманда Крю, Лекси Колкер, Ава Телек, Мишель Харрисон, Мэтти Финочио, Алекс Паунович, АрДжей Фезерстонхо
Описание:
В уединенном домике одного из районов Лос-Анджелеса живут маленькая девочка и ее заботливый отец. Вполне нормальная семья, если не считать, что девочка одним взглядом может поднять в воздух тяжеленный шкаф, а у отца всегда наготове снятый с предохранителя пистолет. Каждый день, уходя из дома, папа запирает дочь, и категорически запрещает открывать дверь. Ей нельзя ни с кем разговаривать и не позволено даже подходить к окну. Единственное развлечение девочки: тайком наблюдать из-за занавесок за фургончиком мороженщика, который целыми днями торчит возле их дома. Играет музыка и таинственной голос призывает её отпереть дверь и полакомиться сладеньким. Малышке так хочется мороженого, но ведь папа сказал, что это смертельно опасно: никто не должен её видеть!
И вот однажды девочка нарушает запрет, и начинаются самые невероятные события, которые только можно представить.

Возраст: 18+ (зрителям, достигшим 18 лет. запрещено для детей)
Рейтинг MPAA: R (лицам до 17 лет обязательно присутствие взрослого)
Дата мировой премьеры: 8 сентября 2018
Дата премьеры в России: 24 октября 2019

Продолжительность: 01:44:45
Качество видео: WEB-DLRip
Перевод: Дублированный (iTunes)
Субтитры: Отсутствуют
Видео: XviD, 720x304, ~1603 Kbps
Аудио: AC-3, 6 ch, 384 Kbps

MediaInfo:

Общее
Полное имя : Freaks.2018.WEB-DLRip.avi
Формат : AVI
Формат/Информация : Audio Video Interleave
Размер файла : 1,46 Гбайт
Продолжительность : 1 ч. 44 м.
Общий поток : 1996 Кбит/сек
Название фильма : Иные / Freaks (2018)
Режиссёр : #stillet
Программа кодирования : VirtualDubMod 1.5.10.3 (build 2550/release)
Библиотека кодирования : VirtualDubMod build 2550/release
Видео
Идентификатор : 0
Формат : MPEG-4 Visual
Профиль формата : Advanced Simple@L5
Настройки формата : BVOP2 / Custom Matrix
Параметр BVOP формата : 2
Параметр QPel формата : Нет
Параметр GMC формата : Без точки перехода
Параметр матрицы формата : Выборочная
Идентификатор кодека : XVID
Идентификатор кодека/Подсказка : XviD
Продолжительность : 1 ч. 44 м.
Битрейт : 1603 Кбит/сек
Ширина : 720 пикселей
Высота : 304 пикселя
Соотношение сторон : 2,35:1
Частота кадров : 24,000 кадра/сек
Цветовое пространство : YUV
Субдискретизация насыщенности : 4:2:0
Битовая глубина : 8 бит
Тип развёртки : Прогрессивная
Метод сжатия : С потерями
Бит/(Пиксели*Кадры) : 0.305
Размер потока : 1,17 Гбайт (80%)
Библиотека кодирования : XviD 67
Аудио
Идентификатор : 1
Формат : AC-3
Формат/Информация : Audio Coding 3
Коммерческое название : Dolby Digital
Идентификатор кодека : 2000
Продолжительность : 1 ч. 44 м.
Вид битрейта : Постоянный
Битрейт : 384 Кбит/сек
Каналы : 6 каналов
ChannelLayout : L R C LFE Ls Rs
Частота : 48,0 КГц
Частота кадров : 31,250 кадров/сек (1536 SPF)
Битовая глубина : 16 бит
Метод сжатия : С потерями
Размер потока : 288 Мбайт (19%)
Выравнивание : Разделение по промежуткам
Продолжительность промежутка : 42 мс. (1,00 видеокадр)
Время предзагрузки промежутка : 500 мс.
ServiceKind/String : Complete Main
-Скриншоты:


Смотреть онлайн


[trackeroc.org].29583.torrent 
Torrent: Registered   [ 2019-11-29 00:44 ]

Скачать торрент

15 KB

Status: checked
Completed: 10 times
Size: 1.46 GB
 

Admin (30-ноя-19)
Similar torrent
Forum Topic Author Size
Российские сериалы Иные (2015) HDTVRip (сезон 1, серии 1-16 из 16) BiOS 8.68 GB
Ужасы ,мистика ,триллеры Хватай и беги / Freaks of Nature (2015) HDRip Admin 1.37 GB
Квесты, я ищу, Поиск предметов, Hidden Object Мост в другой мир 2: Иные/Bridge to Another World 2: The Others Collector's Edition (2015) (Big Fish Games) (RUS) [P] HOPE 1.29 GB

_________________
[Profile] [PM]
Display posts from previous:    
Reply to topic

The time now is: Today 20:18

All times are GMT + 4 Hours



You cannot post new topics in this forum
You cannot reply to topics in this forum
You cannot edit your posts in this forum
You cannot delete your posts in this forum
You cannot vote in polls in this forum
You cannot attach files in this forum
You can download files in this forum