Ищейка (2018) HDTVRip [H.264] (сезон 3, серии 1-16 из 16) скачать торрент

Ответить на тему


Статистика раздачи [Обновить пиров]
Размер:  12.56 GB   |    Зарегистрирован:  17 дней   |    Скачан:  0 раз

Полного источника не было: 10 дней

 
 
 
 
 
Автор Сообщение

BiOS ®

Стаж: 4 года 5 месяцев

Сообщений: 2137

Откуда: East Siberia


Пост 21-Сен-2018 23:11

[Цитировать]

ИЩЕЙКА-3 - Производство: Россия | "Star Media"
Жанр: детектив
Режиссер: Дмитрий Брусникин
Актеры: Анна Банщикова, Александр Макогон, Дмитрий Миллер, Андрей Казаков, Владислав Павлов, Эдуард Чекмазов, Денис Бургазлиев, Анатолий Гущин, Ирина Пулина, Владимир Николенко и др.
Описание:
Жизнь подполковника Александры Кушнир постепенно возвращается в привычное русло. Кажется, героиня научилась выпутываться из самых сложных ситуаций, и её уже ничем не удивить. Но внезапно всего лишь один визит к врачу переворачивает всё с ног на голову. Расследования, быт героини, её отношения с близкими — ничто уже не будет прежним…
Дата российской премьеры: 3 сентября 2018
Продолжительность: ~00:52:00 серия
Качество видео: HDTVRip
Видео: AVC/H.264, 1024х576 (16:9), ~2000 kbps
Аудио: AC3, 2 ch, 48.0 kHz, 192 kbps

Mediainfo:

Код:
General
Format                      : Matroska
Format version              : Version 2
File size                   : 811 MiB
Duration                    : 51 min 42 s
Overall bit rate            : 2 193 kb/s
Encoded date                : UTC 2018-09-03 18:15:20
Writing application         : mkvmerge v7.8.0 ('River Man') 32bit built on Apr  3 2015 12:11:22
Writing library             : libebml v1.3.1 + libmatroska v1.4.2
Video
ID                          : 1
Format                      : AVC
Format/Info                 : Advanced Video Codec
Format profile              : High@L4.1
Format settings, CABAC      : Yes
Format settings, ReFrames   : 9 frames
Codec ID                    : V_MPEG4/ISO/AVC
Duration                    : 51 min 42 s
Bit rate                    : 2 000 kb/s
Width                       : 1 024 pixels
Height                      : 576 pixels
Display aspect ratio        : 16:9
Frame rate mode             : Constant
Frame rate                  : 25.000 FPS
Color space                 : YUV
Chroma subsampling          : 4:2:0
Bit depth                   : 8 bits
Scan type                   : Progressive
Bits/(Pixel*Frame)          : 0.136
Stream size                 : 724 MiB (89%)
Writing library             : x264 core 146 r2538 121396c
Encoding settings           : cabac=1 / ref=9 / deblock=1:-2:-1 / analyse=0x3:0x133 / me=umh / subme=9 / psy=1 / psy_rd=1.00:0.15 / mixed_ref=1 / me_range=32 / chroma_me=1 / trellis=2 / 8x8dct=1 / cqm=0 / deadzone=21,11 / fast_pskip=0 / chroma_qp_offset=-3 / threads=18 / lookahead_threads=3 / sliced_threads=0 / nr=0 / decimate=1 / interlaced=0 / bluray_compat=0 / constrained_intra=0 / bframes=9 / b_pyramid=2 / b_adapt=2 / b_bias=0 / direct=1 / weightb=1 / open_gop=0 / weightp=2 / keyint=250 / keyint_min=25 / scenecut=40 / intra_refresh=0 / rc=2pass / mbtree=0 / bitrate=2000 / ratetol=1.0 / qcomp=0.60 / qpmin=0 / qpmax=69 / qpstep=4 / cplxblur=20.0 / qblur=0.5 / ip_ratio=1.40 / pb_ratio=1.30 / aq=2:1.00
Default                     : Yes
Forced                      : No
Color range                 : Limited
Color primaries             : BT.709
Transfer characteristics    : BT.709
Matrix coefficients         : BT.709
Audio
ID                          : 2
Format                      : AC-3
Format/Info                 : Audio Coding 3
Format settings, Endianness : Big
Codec ID                    : A_AC3
Duration                    : 51 min 42 s
Bit rate mode               : Constant
Bit rate                    : 192 kb/s
Channel(s)                  : 2 channels
Channel positions           : Front: L R
Sampling rate               : 48.0 kHz
Frame rate                  : 31.250 FPS (1536 spf)
Bit depth                   : 16 bits
Compression mode            : Lossy
Stream size                 : 71.0 MiB (9%)
Service kind                : Complete Main
Default                     : Yes
Forced                      : No
-Скриншоты:


Смотреть онлайн


[trackeroc.ru].26374.torrent 
Торрент: Зарегистрирован   [ 2018-09-29 06:34 ]

Скачать торрент

33 KB

Статус: проверено
Скачан: 8 раз
Размер: 12.56 GB
 

Admin (29-сен-18)

Похожие торренты
Форум Тема Автор Размер
Action, экшены WARRIORS OROCHI 4 (2018) (ENG|JAP|MULTi5) HOODLUM Admin 16.32 GB
Спортивные симуляторы NBA 2K Playgrounds 2 (2018) (ENG|MULTi6) CODEX Admin 5.49 GB
Песочницы, Sandbox Northgard v1.4.10805 (2018) (RUS/ENG) Admin 602 MB
Strategy, Стратегии Project AURA v1.1.7 (2018) (ENG|RUS) Repack DD Admin 607 MB
Приключенческие игры, Adventure Escape Legacy: Ancient Scrolls (2018) (ENG) Admin 2.84 GB

_________________

[Профиль] [ЛС]
Показать сообщения:    
Ответить на тему

Текущее время: Сегодня 12:37

Часовой пояс: GMT + 4



Вы не можете начинать темы
Вы не можете отвечать на сообщения
Вы не можете редактировать свои сообщения
Вы не можете удалять свои сообщения
Вы не можете голосовать в опросах
Вы не можете прикреплять файлы к сообщениям
Вы можете скачивать файлы