Иван Царевич и Серый Волк 2 (2013) BDRip [H.264/720p-LQ]

Ответить на тему

Статистика раздачи [Обновить пиров]
Размер:  1.34 GB   |    Зарегистрирован:  10 месяцев 27 дней   |    Скачан:  3 раза

Полного источника не было: 15 дней

 
 
 
 
Автор Сообщение

BiOS ®

Стаж: 2 года 7 месяцев

Сообщений: 1733

Откуда: Raccoon City


Пост 08-Янв-2016 19:43

[Цитировать]

Иван Царевич и Серый Волк 2- Год выпуска: 2013
Жанр: Приключения, Семейный, Фэнтези
Перевод: Не требуется Лицензия
Режиссер: Владимир Торопчин
Персонажи: Никита Ефремов, Татьяна Бунина, Иван Охлобыстин, Михаил Боярский, Ирина Рахманова, Александр Боярский
Описание:
В Тридевятом царстве, где живут наши герои — тишь, да благодать. Иван женился на Василисе, и «жили они долго и счастливо», да не тут-то было. Иван целыми днями пропадает с Волком на службе — укрепляет рубежи и оборонную мощь, мечтает перевести стрелки часов на семь часов назад, чтобы меньше спать, и больше работать. А Василисе — скучно, как всем девушкам, ей хочется романтики, ну, такой, как в сказках. И тогда она решает организовать свое похищение… Однако, когда такое бывало, что в сказках все получалось так, как задумывалось?-Дата мировой премьеры: 26 декабря 2013
Дата российской премьеры: 26 декабря 2013, «Наше Кино» 3D
Дата выхода DVD релиза: 21 января 2014, «Lizard Cinema Trade-Релиз от: за исходник спасибо BLUEBIRD
Продолжительность: 01:09:46
Качество видео: BDRip (batonchik)
Контейнер: MKV
Видео: MPEG-4 AVC Video / 2000 kbps / 1280x720p / 24 fps / 16:9 / High Profile 4.1
Аудио: Русский / AC-3 5.1 / 48 kHz / 640 kbps / 16-bit

h.264 log:

--[Information] [06.02.2014 8:32:49] Standard error stream
---[Information] [06.02.2014 8:32:53] raw [info]: 1280x720p 1:1 @ 24/1 fps (cfr)
---[Information] [06.02.2014 8:32:53] x264 [info]: using SAR=1/1
---[Information] [06.02.2014 8:32:53] x264 [info]: using cpu capabilities: MMX2 SSE2Fast SSSE3 SSE4.2 AVX
---[Information] [06.02.2014 8:32:53] x264 [info]: profile High, level 4.1
---[Information] [06.02.2014 10:36:27] x264 [info]: frame I:1220 Avg QP: 9.98 size:193193
---[Information] [06.02.2014 10:36:27] x264 [info]: frame P:29600 Avg QP:15.66 size: 18357
---[Information] [06.02.2014 10:36:27] x264 [info]: frame B:73766 Avg QP:20.06 size: 4210

---[Information] [06.02.2014 10:36:27] x264 [info]: consecutive B-frames: 5.8% 6.4% 13.6% 41.2% 14.6% 11.7% 1.8% 1.4% 0.7% 2.0% 0.8%
---[Information] [06.02.2014 10:36:27] x264 [info]: mb I I16..4: 17.1% 32.6% 50.3%
---[Information] [06.02.2014 10:36:27] x264 [info]: mb P I16..4: 1.2% 3.9% 2.6% P16..4: 18.6% 11.5% 7.6% 2.6% 0.7% skip:51.2%
---[Information] [06.02.2014 10:36:27] x264 [info]: mb B I16..4: 0.3% 0.6% 0.4% B16..8: 16.0% 5.1% 1.5% direct: 0.9% skip:75.2% L0:48.4% L1:46.0% BI: 5.6%
---[Information] [06.02.2014 10:36:27] x264 [info]: 8x8 transform intra:45.3% inter:24.9%
---[Information] [06.02.2014 10:36:27] x264 [info]: direct mvs spatial:93.7% temporal:6.3%
---[Information] [06.02.2014 10:36:27] x264 [info]: coded y,uvDC,uvAC intra: 51.2% 57.6% 47.5% inter: 4.6% 5.5% 3.1%
---[Information] [06.02.2014 10:36:27] x264 [info]: i16 v,h,dc,p: 33% 32% 16% 19%
---[Information] [06.02.2014 10:36:27] x264 [info]: i8 v,h,dc,ddl,ddr,vr,hd,vl,hu: 14% 19% 36% 4% 5% 5% 5% 5% 8%
---[Information] [06.02.2014 10:36:27] x264 [info]: i4 v,h,dc,ddl,ddr,vr,hd,vl,hu: 18% 17% 20% 6% 9% 9% 7% 6% 8%
---[Information] [06.02.2014 10:36:27] x264 [info]: i8c dc,h,v,p: 31% 46% 16% 7%
---[Information] [06.02.2014 10:36:27] x264 [info]: Weighted P-Frames: Y:1.2% UV:0.8%
---[Information] [06.02.2014 10:36:27] x264 [info]: ref P L0: 55.7% 3.5% 16.2% 7.9% 5.0% 4.6% 3.5% 2.7% 0.7% 0.0%
---[Information] [06.02.2014 10:36:27] x264 [info]: ref B L0: 69.0% 13.1% 7.7% 3.8% 3.6% 1.8% 0.9%
---[Information] [06.02.2014 10:36:27] x264 [info]: ref B L1: 91.6% 8.4%
---[Information] [06.02.2014 10:36:27] x264 [info]: kb/s:2000.37
---[Information] [06.02.2014 10:36:27] encoded 104586 frames, 14.11 fps, 2000.38 kb/s
--[Information] [06.02.2014 10:36:27] Final statistics
---[Information] [06.02.2014 10:36:27] Video Bitrate Desired: 2000 kbit/s
---[Information] [06.02.2014 10:36:27] Video Bitrate Obtained (approximate): 2001 kbit/s

MediaInfo:

Код:
Общее
Уникальный идентификатор                 : 184589352492654605847478227943206336023 (0x8ADE9DBB3968C86491C51286F676B617)
Полное имя                               : \Иван.Царевич.и.Серый Волк.2.2013.BDRip720p.mkv
Формат                                   : Matroska
Версия формата                           : Version 2
Размер файла                             : 1,34 Гбайт
Продолжительность                        : 1 ч. 12 м.
Общий поток                              : 2642 Кбит/сек
Название фильма                          : Иван.Царевич.и.Серый Волк.2.2013.BDRip720p
Дата кодирования                         : UTC 2014-02-06 07:16:04
Программа кодирования                    : mkvmerge v5.8.0 ('No Sleep / Pillow') built on Sep  2 2012 15:37:04
Библиотека кодирования                   : libebml v1.2.3 + libmatroska v1.3.0
Видео
Идентификатор                            : 1
Формат                                   : AVC
Формат/Информация                        : Advanced Video Codec
Профиль формата                          : High@L4.1
Параметр CABAC формата                   : Да
Параметр ReFrames формата                : 8 кадров
Идентификатор кодека                     : V_MPEG4/ISO/AVC
Продолжительность                        : 1 ч. 12 м.
Битрейт                                  : 2000 Кбит/сек
Ширина                                   : 1280 пикселей
Высота                                   : 720 пикселей
Соотношение сторон                       : 16:9
Режим частоты кадров                     : Постоянный
Частота кадров                           : 24,000 кадра/сек
Цветовое пространство                    : YUV
Субдискретизация насыщенности            : 4:2:0
Битовая глубина                          : 8 бит
Тип развёртки                            : Прогрессивная
Бит/(Пиксели*Кадры)                      : 0.090
Размер потока                            : 1013 Мбайт (74%)
Заголовок                                : Иван.Царевич.и.Серый Волк.2.2013.BDRip720p
Библиотека кодирования                   : x264 core 138 r2358 9e941d1
Настройки программы                      : cabac=1 / ref=8 / deblock=1:-3:-3 / analyse=0x3:0x133 / me=umh / subme=11 / psy=1 / psy_rd=1.00:0.15 / mixed_ref=1 / me_range=32 / chroma_me=1 / trellis=2 / 8x8dct=1 / cqm=0 / deadzone=21,11 / fast_pskip=0 / chroma_qp_offset=-3 / threads=12 / lookahead_threads=3 / sliced_threads=0 / nr=0 / decimate=1 / interlaced=0 / bluray_compat=0 / constrained_intra=0 / bframes=10 / b_pyramid=2 / b_adapt=2 / b_bias=0 / direct=3 / weightb=1 / open_gop=0 / weightp=2 / keyint=240 / keyint_min=22 / scenecut=40 / intra_refresh=0 / rc_lookahead=40 / rc=2pass / mbtree=1 / bitrate=2000 / ratetol=1.0 / qcomp=0.60 / qpmin=0 / qpmax=69 / qpstep=4 / cplxblur=20.0 / qblur=0.5 / vbv_maxrate=50000 / vbv_bufsize=62500 / nal_hrd=none / ip_ratio=1.40 / aq=1:0.90
Язык                                     : Russian
Default                                  : Да
Forced                                   : Нет
Аудио
Идентификатор                            : 2
Формат                                   : AC-3
Формат/Информация                        : Audio Coding 3
Расширение режима                        : CM (complete main)
Параметр Endianness формата              : Big
Идентификатор кодека                     : A_AC3
Продолжительность                        : 1 ч. 12 м.
Вид битрейта                             : Постоянный
Битрейт                                  : 640 Кбит/сек
Каналы                                   : 6 каналов
Расположение каналов                     : Front: L C R, Side: L R, LFE
Частота                                  : 48,0 КГц
Битовая глубина                          : 16 бит
Метод сжатия                             : С потерями
Размер потока                            : 332 Мбайт (24%)
Язык                                     : Russian
Default                                  : Да
Forced                                   : Нет
Меню
00:00:00.000                             : ru:Chapter 01
00:08:56.291                             : ru:Chapter 02
00:17:20.708                             : ru:Chapter 03
00:30:52.708                             : ru:Chapter 04
00:42:35.791                             : ru:Chapter 05
01:00:23.875                             : ru:Chapter 06
Скриншоты:


Смотреть онлайн

[trackeroc.ru].10913.torrent 
Торрент: Зарегистрирован   [ 2016-01-08 19:43 ]

Скачать торрент

14 KB

Статус: проверено
Скачан: 15 раз
Размер: 1.34 GB
 

trackerbot (08-янв-16)
Похожие торренты
Форум Тема Автор Размер
Отечественные Иван Царевич и Серый Волк 3 (2015) WEB-DLRip Admin 1.37 GB
Отечественные Иван Царевич и Серый Волк (2011) [H.264] DVDRip BiOS 1.44 GB

_________________
[Профиль] [ЛС]
Показать сообщения:    
Ответить на тему

Текущее время: Сегодня 02:16

Часовой пояс: GMT + 4



Вы не можете начинать темы
Вы не можете отвечать на сообщения
Вы не можете редактировать свои сообщения
Вы не можете удалять свои сообщения
Вы не можете голосовать в опросах
Вы не можете прикреплять файлы к сообщениям
Вы можете скачивать файлы