Изгой / Outcast (2016) WEB-DL(сезон 1, серии 1-10 из 10) AlexFilm

Ответить на тему

Статистика раздачи [Обновить пиров]
Размер:  16.5 GB   |    Зарегистрирован:  3 месяца 24 дня   |    Скачан:  0 раз

Полного источника не было: Никогда

 
 
 
 
Автор Сообщение

Admin ®

Стаж: 7 месяцев 13 дней

Сообщений: 4453

Откуда: trackeroc.ru


Пост 23-Май-2016 14:38

[Цитировать]

Изгой / Outcast
«Possession is just the beginning»
- Производство: США, Fox International Channels
Жанр: ужасы, драма
Режиссер: Ли Джаньяк, Лони Перистер, Джулиус Рамсей, Адам Вингард
Актеры: Ренн Шмидт, Патрик Фьюджит, Филип Гленистер, Дэвид Денман, Рег Э. Кэти, Калли Брук МакКлинси, Пит Буррис, Мелинда МакГроу, Мадлен МакГроу, Дебра Кристофферсон и др.
Описание:
Сколько себя помнит, он был одержим демоническими силами, но никак не мог понять, что с ним происходит и как ему избавиться от этого. Это причиняло боль и отравляло жизнь, так как страдал не только он сам, но и те люди, что его окружали. Став взрослым, герой пытается при помощи Преподобного раскрыть суть преследующих его сверхъестественных явлений.
Дата мировой премьеры: 23 мая 2016
Релиз от: AlexFilm
Продолжительность: ~ 00:55:00 серия
Качество видео: WEB-DL
Перевод: Профессиональный многоголосый закадровый - AlexFilm
Озвучка: Алёна Андронова, Наталья Ланц, Михаил Суслов, Роман Сопко, Андрей Стакионис, Рустам Шайхиев
Автор перевода: Константин Кривоногов
Реклама: присутствуют голосовые вставки рекламы
Видео: MKV, AVC/H.264, 1280x720 (16:9), ~3952 Kbps
Аудио: AC3, 384 kbps, 6 ch, 48 kHz

MediaInfo

Код:
Общее
Формат                                   : Matroska
Версия формата                           : Version 4 / Version 2
Размер файла                             : 1,84 Гбайт
Продолжительность                        : 54 м.
Общий поток                              : 4816 Кбит/сек
Название фильма                          : Outcast 1x01 @ AlexFilm
Дата кодирования                         : UTC 2016-06-14 14:01:26
Программа кодирования                    : mkvmerge v7.1.0 ('Good Love') 64bit built on Jul 27 2014 13:06:55
Библиотека кодирования                   : libebml v1.3.0 + libmatroska v1.4.1
Видео
Идентификатор                            : 1
Формат                                   : AVC
Формат/Информация                        : Advanced Video Codec
Профиль формата                          : High@L3.1
Параметр CABAC формата                   : Нет
Параметр ReFrames формата                : 2 кадра
Идентификатор кодека                     : V_MPEG4/ISO/AVC
Продолжительность                        : 54 м.
Битрейт                                  : 3952 Кбит/сек
Ширина                                   : 1280 пикселей
Высота                                   : 720 пикселей
Соотношение сторон                       : 16:9
Режим частоты кадров                     : Постоянный
Частота кадров                           : 23,976 кадра/сек
Цветовое пространство                    : YUV
Субдискретизация насыщенности            : 4:2:0
Битовая глубина                          : 8 бит
Тип развёртки                            : Прогрессивная
Бит/(Пиксели*Кадры)                      : 0.179
Размер потока                            : 1,51 Гбайт (82%)
Язык                                     : English
Default                                  : Да
Forced                                   : Нет
Основные цвета                           : BT.709
Характеристики трансфера                 : BT.709
Коэффициенты матрицы                     : BT.709
colour_range                             : Limited
Аудио #1
Идентификатор                            : 2
Формат                                   : AC-3
Формат/Информация                        : Audio Coding 3
Расширение режима                        : CM (complete main)
Параметр Endianness формата              : Big
Идентификатор кодека                     : A_AC3
Продолжительность                        : 54 м.
Вид битрейта                             : Постоянный
Битрейт                                  : 384 Кбит/сек
Каналы                                   : 6 каналов
Расположение каналов                     : Front: L C R, Side: L R, LFE
Частота                                  : 48,0 КГц
Битовая глубина                          : 16 бит
Метод сжатия                             : С потерями
Размер потока                            : 150 Мбайт (8%)
Заголовок                                : DD5.1 AlexFilm
Язык                                     : Russian
Default                                  : Да
Forced                                   : Нет
Аудио #2
Идентификатор                            : 3
Формат                                   : AC-3
Формат/Информация                        : Audio Coding 3
Расширение режима                        : CM (complete main)
Параметр Endianness формата              : Big
Идентификатор кодека                     : A_AC3
Продолжительность                        : 54 м.
Вид битрейта                             : Постоянный
Битрейт                                  : 384 Кбит/сек
Каналы                                   : 6 каналов
Расположение каналов                     : Front: L C R, Side: L R, LFE
Частота                                  : 48,0 КГц
Битовая глубина                          : 16 бит
Метод сжатия                             : С потерями
Размер потока                            : 150 Мбайт (8%)
Заголовок                                : DD5.1 Original
Язык                                     : English
Default                                  : Нет
Forced                                   : Нет

Список серий

01. A Darkness Surrounds Him / Тьма окружает его
02. (I Remember) When She Loved Me / (Я помню) Она любила меня
03. All Alone Now / Теперь совсем один
04. A Wrath Unseen / Невидимый гнев
05. The Road Before Us / Путь перед нами
06. From the Shadows It Watches / Оно наблюдает из тени
07. The Damage Done / Причинённый ущерб
08. What Lurks Within / То, что таится внутри
09. Close to Home / Под боком
10. This Little Light / Этот маленький свет
-Скриншоты:


Смотреть онлайн

[trackeroc.ru].12822.torrent 
Торрент: Зарегистрирован   [ 2016-08-15 07:40 ]

Скачать торрент

43 KB

Статус: проверено
Скачан: 13 раз
Размер: 16.5 GB
1/9
 

BiOS (15-авг-16)
Похожие торренты
Форум Тема Автор Размер
Зарубежные сериалы Изгой / Outcast (2016) WEB-DL [H.264] (сезон 1, серии 1-10 из 10) LostFilm [MP4|1280x720] BiOS 14.84 GB
Зарубежные сериалы Изгой / Outcast (2016) HDTVRip (сезон 1, серии 1-10 из 10) LostFilm BiOS 4.37 GB
Приключенческие игры Adventure Outcast 1.1 (2014) (Fresh3D) (ENG) Admin 1.43 GB

_________________
[Профиль] [ЛС]
Показать сообщения:    
Ответить на тему

Текущее время: Сегодня 19:59

Часовой пояс: GMT + 4



Вы не можете начинать темы
Вы не можете отвечать на сообщения
Вы не можете редактировать свои сообщения
Вы не можете удалять свои сообщения
Вы не можете голосовать в опросах
Вы не можете прикреплять файлы к сообщениям
Вы можете скачивать файлы