Жених с того света (1958) DVBRip

Ответить на тему

Статистика раздачи [Обновить пиров]
Скачали
Размер:  1.57 GB   |    Зарегистрирован:  1 год 1 месяц   |    Скачан:  3 раза

Полного источника не было: 21 день

 
 
 
 
Автор Сообщение

BiOS ®

Стаж: 2 года 7 месяцев

Сообщений: 1732

Откуда: Raccoon City


Пост 19-Окт-2015 08:43

[Цитировать]

Жених с того света - Производство: CCCР
Жанр: Комедия
Режиссер: Леонид Гайдай
Актеры: Ростислав Плятт, Георгий Вицин, Вера Алтайская, Рина Зелёная
Описание:
Глава учреждения КУКУ (Кустовое управление курортными учреждениями) виртуоз-бюрократ Петухов (Ростислав Плятт) попадает в щекотливое положение: вернувшись после трёхдневного отсутствия от невесты, он обнаруживает, что его похоронили, причем на совершенно законных основаниях. Тело человека, погибшего под машиной, было ошибочно принято за тело Петухова.
Продолжительность: 00:47:39
Качество видео: DVBRip
Видео: MPEG2 Video, 720x576@768@576 (4:3), 25,000 кадров/сек, 4425 Кбит/сек
Аудио: MPEG Audio, 48,0 КГц, 192 Кбит/сек, 2 канала

Mediainfo

Код:
General
Complete name : Z:\MPG\ЖЕНИХ С ТОГО СВЕТА (Zvezda 55).mpg
Format : MPEG-PS
File size : 1.57 GiB
Duration : 47mn 38s
Overall bit rate mode : Variable
Overall bit rate : 4 711 Kbps
Video
ID : 224 (0xE0)
Format : MPEG Video
Format version : Version 2
Format profile : Main@Main
Format settings, BVOP : Yes
Format settings, Matrix : Custom
Duration : 47mn 38s
Bit rate mode : Variable
Bit rate : 4 425 Kbps
Maximum bit rate : 15.0 Mbps
Width : 720 pixels
Height : 576 pixels
Display aspect ratio : 4:3
Frame rate : 25.000 fps
Standard : PAL
Color space : YUV
Chroma subsampling : 4:2:0
Bit depth : 8 bits
Scan type : Interlaced
Scan order : Top Field First
Compression mode : Lossy
Bits/(Pixel*Frame) : 0.427
Stream size : 1.47 GiB (94%)
Audio
ID : 192 (0xC0)
Format : MPEG Audio
Format version : Version 1
Format profile : Layer 2
Duration : 47mn 38s
Bit rate mode : Constant
Bit rate : 192 Kbps
Channel(s) : 2 channels
Sampling rate : 48.0 KHz
Compression mode : Lossy
Delay relative to video : 2ms
Stream size : 65.4 MiB (4%)
Скриншоты:

Дополнительные скриншоты



Смотреть онлайн

[trackeroc.ru].8953.torrent 
Торрент: Зарегистрирован   [ 2015-10-19 08:43 ]

Скачать торрент

32 KB

Статус: проверено
Скачан: 13 раз
Размер: 1.57 GB
 

Admin (19-окт-15)
Похожие торренты
Форум Тема Автор Размер
Комедии Жених (2016) WEB-DLRip [H.264] BiOS 1.46 GB

_________________
[Профиль] [ЛС]
Показать сообщения:    
Ответить на тему

Текущее время: Сегодня 18:27

Часовой пояс: GMT + 4



Вы не можете начинать темы
Вы не можете отвечать на сообщения
Вы не можете редактировать свои сообщения
Вы не можете удалять свои сообщения
Вы не можете голосовать в опросах
Вы не можете прикреплять файлы к сообщениям
Вы можете скачивать файлы