Парад Победы 1945 года, Москва (1945.06.24) SATRip

Ответить на тему
 
Автор Сообщение

BiOS ®

Стаж: 2 года 7 месяцев

Сообщений: 1738

Откуда: Raccoon City


Пост 09-Май-2016 10:56

[Цитировать]

Парад Победы 1945 года, Москва - Жанр: Документальный, военный парад
Описание:
Парад войск Красной армии в честь победы над фашистской Германией состоялся 24 июня 1945 года на Красной площади в Москве.
Продолжительность: 00:48:20
Качество видео: SATRip
Субтитры: Отсутствуют
Видео: AVC/H.264, 640х480, ~679 Kbps
Аудио: AAC, 2 channels, ~128 Kbps (русский)

Mediainfo:

Код:
General
Complete name                            : Парад Победы 1945 г..mp4
Format                                   : MPEG-4
Format profile                           : Base Media
Codec ID                                 : isom
File size                                : 282 MiB
Duration                                 : 48mn 20s
Overall bit rate mode                    : Variable
Overall bit rate                         : 815 Kbps
Movie name                               : Парад Победы 1945 г [NoNaMe Club] [rip by alien.09]
ContentType                              : Short Film
Encoded date                             : UTC 2015-05-09 11:32:14
Tagged date                              : UTC 2015-05-09 11:32:24
Writing application                      : MkvToMp4 [www.mkvtomp4.ru] version: 0.224 (x64)
Video
ID                                       : 1
Format                                   : AVC
Format/Info                              : Advanced Video Codec
Format profile                           : Main@L4.1
Format settings, CABAC                   : Yes
Format settings, ReFrames                : 3 frames
Codec ID                                 : avc1
Codec ID/Info                            : Advanced Video Coding
Duration                                 : 48mn 20s
Bit rate                                 : 679 Kbps
Maximum bit rate                         : 2 774 Kbps
Width                                    : 640 pixels
Height                                   : 480 pixels
Display aspect ratio                     : 4:3
Frame rate mode                          : Constant
Frame rate                               : 25.000 fps
Color space                              : YUV
Chroma subsampling                       : 4:2:0
Bit depth                                : 8 bits
Scan type                                : Progressive
Bits/(Pixel*Frame)                       : 0.088
Stream size                              : 235 MiB (83%)
Writing library                          : x264 core 116 r2019M 9cc407d
Encoding settings                        : cabac=1 / ref=3 / deblock=1:-1:-1 / analyse=0x1:0x131 / me=hex / subme=7 / psy=1 / psy_rd=1.00:0.15 / mixed_ref=1 / me_range=16 / chroma_me=1 / trellis=1 / 8x8dct=0 / cqm=0 / deadzone=21,11 / fast_pskip=1 / chroma_qp_offset=-3 / threads=12 / sliced_threads=0 / nr=0 / decimate=1 / interlaced=0 / bluray_compat=0 / constrained_intra=0 / bframes=3 / b_pyramid=0 / b_adapt=2 / b_bias=0 / direct=3 / weightb=1 / open_gop=0 / weightp=0 / keyint=250 / keyint_min=25 / scenecut=40 / intra_refresh=0 / rc_lookahead=40 / rc=2pass / mbtree=1 / bitrate=679 / ratetol=1.0 / qcomp=0.60 / qpmin=10 / qpmax=51 / qpstep=4 / cplxblur=20.0 / qblur=0.5 / vbv_maxrate=5000 / vbv_bufsize=1835 / nal_hrd=none / ip_ratio=1.40 / aq=1:1.00
Language                                 : English
Encoded date                             : UTC 2015-05-09 11:32:14
Tagged date                              : UTC 2015-05-09 11:32:18
Audio
ID                                       : 2
Format                                   : AAC
Format/Info                              : Advanced Audio Codec
Format profile                           : LC
Codec ID                                 : 40
Duration                                 : 48mn 19s
Bit rate mode                            : Variable
Bit rate                                 : 128 Kbps
Maximum bit rate                         : 148 Kbps
Channel(s)                               : 2 channels
Channel positions                        : Front: L R
Sampling rate                            : 48.0 KHz
Compression mode                         : Lossy
Stream size                              : 44.2 MiB (16%)
Language                                 : Russian
Encoded date                             : UTC 2015-05-09 11:32:17
Tagged date                              : UTC 2015-05-09 11:32:18
-Скриншоты:
Похожие торренты
Форум Тема Автор Размер
Документальные Трейлеры Праздничный салют, посвященный Дню Победы. Москва (2016.05.09) HDTV [H.264/1080i-LQ] BiOS 522 MB
Документальные Трейлеры Парад Победы, посвященный 71-ой годовщине Победы в ВОВ 1941-1945г., Москва (2016.05.09) HDTV [H.264/1080i] BiOS 4.19 GB
Документальные Трейлеры Парад Победы, посвященный 71-ой годовщине Победы в ВОВ 1941-1945г., Грозный (2016.05.09) SATRip BiOS 336 MB
Документальные Трейлеры Парад Победы, посвященный 71-ой годовщине Победы в ВОВ 1941-1945г., Калининград (2016.05.09) WEBRip BiOS 811 MB
Документальные Трейлеры Парад Победы, посвященный 71-ой годовщине Победы в ВОВ 1941-1945г., Донецк (2016.05.09) WEBRip BiOS 820 MB

_________________
[Профиль] [ЛС]
Показать сообщения:    
Ответить на тему

Текущее время: Сегодня 23:12

Часовой пояс: GMT + 4



Вы не можете начинать темы
Вы не можете отвечать на сообщения
Вы не можете редактировать свои сообщения
Вы не можете удалять свои сообщения
Вы не можете голосовать в опросах
Вы не можете прикреплять файлы к сообщениям
Вы не можете скачивать файлы