Калина Красная (1973) HDTVRip [H.264]

Ответить на тему

Статистика раздачи [Обновить пиров]
Размер:  1.75 GB   |    Зарегистрирован:  1 год   |    Скачан:  2 раза

Полного источника не было: 2 месяца 29 дней

 
 
 
 
Автор Сообщение

BiOS ®

Стаж: 2 года 7 месяцев

Сообщений: 1738

Откуда: Raccoon City


Пост 13-Ноя-2015 07:08

[Цитировать]

Калина Красная - Производство: СССР / Мосфильм
Жанр: Драма
Режиссер: Василий Шукшин
Актеры: Василий Шукшин, Лидия Федосеева-Шукшина, Иван Рыжов, Мария Скворцова, Алексей Ванин, Мария Виноградова, Афимья Быстрова, Лев Дуров, Николай Граббе, Георгий Бурков, Татьяна Гаврилова, Александр Горбенко, Наталья Гвоздикова
Описание:
Выйдя из тюрьмы, Егор Прокудин, по кличке Горе, решает податься в деревню, где живет синеглазая незнакомка Люба, с которой он переписывался — ведь надо немного переждать и осмотреться. Но жизнь в деревне рушит все планы Егора, и он решает навсегда порвать с прошлым. Теперь у него есть друзья, работа. Он любит Любу. Однако дружки Егора упорно не отпускают его…
Продолжительность: 01:41:49
Качество видео: HDTVRip
Видео: AVC/H.264, 768x576, ~2267 Kbps
Аудио: MP2, 2 ch, 192 Kbps, 48.0 kHz

Mediainfo:

Код:
General
Unique ID                                : 220222009495679534089767277228472583365 (0xA5AD375C2A66DFCD9CE56B7969DEC4C5)
Complete name                            : F:\Downloads\Калина красная.mkv
Format                                   : Matroska
Format version                           : Version 4 / Version 2
File size                                : 1.75 GiB
Duration                                 : 1h 41mn
Overall bit rate                         : 2 461 Kbps
Encoded date                             : UTC 2015-11-02 12:52:37
Writing application                      : mkvmerge v7.0.0 ('Where We Going') 32bit built on Jun  9 2014 15:08:34
Writing library                          : libebml v1.3.0 + libmatroska v1.4.1
DURATION                                 : 01:41:49.096000000
NUMBER_OF_FRAMES                         : 254511
NUMBER_OF_BYTES                          : 146598387
_STATISTICS_WRITING_APP                  : mkvmerge v7.0.0 ('Where We Going') 32bit built on Jun  9 2014 15:08:34
_STATISTICS_WRITING_DATE_UTC             : 2015-11-02 12:52:37
_STATISTICS_TAGS                         : BPS DURATION NUMBER_OF_FRAMES NUMBER_OF_BYTES
Video
ID                                       : 1
Format                                   : AVC
Format/Info                              : Advanced Video Codec
Format profile                           : High@L3.2
Format settings, CABAC                   : Yes
Format settings, ReFrames                : 8 frames
Codec ID                                 : V_MPEG4/ISO/AVC
Duration                                 : 1h 41mn
Bit rate                                 : 2 267 Kbps
Width                                    : 768 pixels
Height                                   : 576 pixels
Display aspect ratio                     : 4:3
Frame rate mode                          : Constant
Frame rate                               : 25.000 fps
Color space                              : YUV
Chroma subsampling                       : 4:2:0
Bit depth                                : 8 bits
Scan type                                : Progressive
Bits/(Pixel*Frame)                       : 0.205
Stream size                              : 1.58 GiB (90%)
Title                                    : Калина красная (1973)
Writing library                          : x264 core 125 r2208 d9d2288
Encoding settings                        : cabac=1 / ref=8 / deblock=1:-1:-1 / analyse=0x3:0x133 / me=umh / subme=9 / psy=1 / psy_rd=1.00:0.10 / mixed_ref=1 / me_range=32 / chroma_me=1 / trellis=2 / 8x8dct=1 / cqm=0 / deadzone=21,11 / fast_pskip=0 / chroma_qp_offset=-3 / threads=6 / lookahead_threads=1 / sliced_threads=0 / nr=0 / decimate=1 / interlaced=0 / bluray_compat=0 / constrained_intra=0 / bframes=3 / b_pyramid=2 / b_adapt=2 / b_bias=0 / direct=3 / weightb=1 / open_gop=0 / weightp=2 / keyint=250 / keyint_min=25 / scenecut=40 / intra_refresh=0 / rc_lookahead=60 / rc=2pass / mbtree=1 / bitrate=2267 / ratetol=1.0 / qcomp=0.60 / qpmin=0 / qpmax=69 / qpstep=4 / cplxblur=20.0 / qblur=0.5 / ip_ratio=1.40 / aq=1:1.00
Language                                 : Russian
Default                                  : Yes
Forced                                   : No
Audio
ID                                       : 2
Format                                   : MPEG Audio
Format version                           : Version 1
Format profile                           : Layer 2
Codec ID                                 : A_MPEG/L2
Codec ID/Hint                            : MP2
Duration                                 : 1h 41mn
Bit rate mode                            : Constant
Bit rate                                 : 192 Kbps
Channel(s)                               : 2 channels
Sampling rate                            : 48.0 KHz
Compression mode                         : Lossy
Stream size                              : 140 MiB (8%)
Title                                    : Русский
Language                                 : Russian
Default                                  : Yes
Forced                                   : No
-Скриншоты:

Дополнительные скриншоты:



Смотреть онлайн

[trackeroc.ru].9719.torrent 
Торрент: Зарегистрирован   [ 2015-11-13 07:08 ]

Скачать торрент

18 KB

Статус: проверено
Скачан: 18 раз
Размер: 1.75 GB
 

Admin (13-ноя-15), Angel (16-ноя-15)
Похожие торренты
Форум Тема Автор Размер
Отечественные Бременские Музыканты (1968 - 1973) DVD-5 (Полная Реставрация Изображения и Звука) «Крупный План» BiOS 3.87 GB
Фантастика Фэнтези Чудо-женщины / Wonder Women (1973) DVDRip BiOS 1.09 GB
Российские сериалы Красная королева [1-12 из 12] (Алена Семенова) [2015, биография, драма, SATRip] Матвей 8.42 GB

_________________
[Профиль] [ЛС]
Показать сообщения:    
Ответить на тему

Текущее время: Сегодня 23:15

Часовой пояс: GMT + 4



Вы не можете начинать темы
Вы не можете отвечать на сообщения
Вы не можете редактировать свои сообщения
Вы не можете удалять свои сообщения
Вы не можете голосовать в опросах
Вы не можете прикреплять файлы к сообщениям
Вы можете скачивать файлы