Капитан Фантастик / Captain Fantastic (2016) WEB-DLRip [MVO] [iTunes] скачать торрент

Reply to topic

DL-List and Torrent activity [Update пиров]
Size:  1.46 GB   |    Registered:  1 year   |    Completed:  1 time

Seeder not seen: 11 months 2 days

 
 
 
 
 
Author Message

BiOS ®

Longevity: 5 years 9 months

Posts: 2406

Location: Earth


Post 14-Jan-2019 21:01

[Quote]

Капитан Фантастик / Captain Fantastic«Он подготовил их ко всему, кроме настоящей жизни»- Производство: США
Жанр: Драма, мелодрама, комедия
Режиссер: Мэтт Росс
Актеры: Вигго Мортенсен, Джордж МакКэй, Саманта Ислер, Анналиса Бассо, Николас Хэмилтон, Шри Крукс, Чарли Шотуэлл, Трин Миллер, Кэтрин Хан, Стив Зан
Описание:
Они говорят на нескольких языках, знают квантовую физику и разбираются в философии. Они умеют охотиться и обращаться с оружием. Они живут в лесу в полной гармонии с природой. Лишь стечение обстоятельств заставляет их покинуть родной дом и отправиться в большой город. Что будет, когда они столкнутся с цивилизацией, когда на них обрушится первая любовь и мир гаджетов и социальных сетей?

Возраст: 16+ (зрителям, достигшим 16 лет)
Рейтинг MPAA: R (лицам до 17 лет обязательно присутствие взрослого)
Дата мировой премьеры: 23 января 2016
Дата премьеры в России: 11 августа 2016

Продолжительность: 01:58:54
Качество видео: WEB-DLRip
Перевод: Профессиональный (многоголосый, закадровый) [iTunes]
Видео: XviD, 720x304 (2.37:1), 24 fps, XviD build 50 ~1358 kbps avg, 0.26 bit/pixel
Аудио: AC3 Dolby Digital, 3/2 (L,C,R,l,r) + LFE ch, ~384.00 kbps avg

MediaInfo:

General
Format : AVI
Format/Info : Audio Video Interleave
File size : 1.46 GiB
Duration : 1h 58mn
Overall bit rate : 1 752 Kbps
Writing application : VirtualDubMod 1.5.10.2 (build 2540/release)
Writing library : VirtualDubMod build 2540/release
Video
ID : 0
Format : MPEG-4 Visual
Format profile : Advanced Simple@L5
Format settings, BVOP : 2
Format settings, QPel : No
Format settings, GMC : No warppoints
Format settings, Matrix : Default (MPEG)
Codec ID : XVID
Codec ID/Hint : XviD
Duration : 1h 58mn
Bit rate : 1 359 Kbps
Width : 720 pixels
Height : 304 pixels
Display aspect ratio : 2.35:1
Frame rate : 24.000 fps
Color space : YUV
Chroma subsampling : 4:2:0
Bit depth : 8 bits
Scan type : Progressive
Compression mode : Lossy
Bits/(Pixel*Frame) : 0.259
Stream size : 1.13 GiB (78%)
Writing library : XviD 1.2.1 (UTC 2008-12-04)
Audio
ID : 1
Format : AC-3
Format/Info : Audio Coding 3
Mode extension : CM (complete main)
Format settings, Endianness : Big
Codec ID : 2000
Duration : 1h 58mn
Bit rate mode : Constant
Bit rate : 384 Kbps
Channel(s) : 6 channels
Channel positions : Front: L C R, Side: L R, LFE
Sampling rate : 48.0 KHz
Bit depth : 16 bits
Compression mode : Lossy
Stream size : 327 MiB (22%)
Alignment : Split accross interleaves
Interleave, duration : 42 ms (1.00 video frame)
Interleave, preload duration : 500 ms
-Скриншоты:


Смотреть онлайн


[trackeroc.ru].27385.torrent 
Torrent: Registered   [ 2019-01-14 21:01 ]

Скачать торрент

16 KB

Status: checked
Completed: 28 times
Size: 1.46 GB
 

Admin (14-янв-19)
Similar torrent
Forum Topic Author Size
Фантастика ,Фэнтези Капитан Марвел / Captain Marvel (2019) WEB-DLRip Admin 1.44 GB
Комедии Капитан Фалкао / Capitao Falcao (2015) BDRip Admin 1.46 GB

_________________
[Profile] [PM]
Display posts from previous:    
Reply to topic

The time now is: Today 18:02

All times are GMT + 4 Hours



You cannot post new topics in this forum
You cannot reply to topics in this forum
You cannot edit your posts in this forum
You cannot delete your posts in this forum
You cannot vote in polls in this forum
You cannot attach files in this forum
You can download files in this forum