Кино и Виктор Цой. Концерт в СКК Олимпийский 05.05.1990 (эфир от 15.08.2010) [1990] SATRip

Ответить на тему

Статистика раздачи [Обновить пиров]
Размер:  874 MB   |    Зарегистрирован:  1 год   |    Скачан:  3 раза

Полного источника не было: 6 дней

 
 
 
 
Автор Сообщение

BiOS ®

Стаж: 2 года 7 месяцев

Сообщений: 1730

Откуда: Raccoon City


Пост 13-Ноя-2015 02:10

[Цитировать]

Кино и Виктор Цой. Концерт в СКК Олимпийский 05.05.1990 - Прoизводство: ОРТ
Жанр: Концерт
Описание :
Запись одного из последних концертов Виктора Цоя и гр. "Кино", прошедшего 5 мая 1990 года в московском спорткомплексе "Олимпийский".
Концерт показан в эфире канала ОРТ 15 августа 2010 года, в 20-летнюю годовщину гибели В. Цоя. Отличие от оригинальной записи концерта - только дважды повторяющаяся песня "Группа крови", поставленная ОРТ кроме окончания также в начало концерта.
Продолжительность: 01:03:57
Качество видео: SATRip
Видеокодек: AVC/H.264
Битрейт видео: 1700 kbps
Размер кадра: 720x448
Аудиокодек: MP3 2.0
Битрейт аудио: 208 kbps
Внимание !!! Этот файл не будет воспроизводиться на бытовых DVD-плеерах, не имеющих поддержки кодека h.264.

Треклист:

Треклист:
01. Группа крови
02. Песня без слов
03. Звезда по имени Солнце
04. Закрой за мной дверь
05. Верь
06. Печаль
07. Последний герой
08. Бошетунмай
09. Пачка сигарет
10. Камчатка
11. Война
12. Спокойная ночь
13. Хочу перемен
14. Группа крови

MediaInfo

Код:
Уникальный идентификатор                 : 229373756579981703696698068477183879503 (0xAC8FC753FE7A53F0A32BCF63F9B1694F)
Полное имя                               : Z:\Концерты\Кино и Виктор Цой. Концерт в СКК Олимпийский 5.05.1990 (эфир 15.08.2010) SATRip-AVC.mkv
Формат                                   : Matroska
Версия формата                           : Version 2
Размер файла                             : 874 Мбайт
Продолжительность                        : 1 ч. 3 м.
Режим общего битрейта                    : Переменный
Общий поток                              : 1910 Кбит/сек
Дата кодирования                         : UTC 2010-08-22 07:10:50
Программа кодирования                    : mkvmerge v3.2.0 ('Beginnings') built on Feb 17 2010 12:36:13
Библиотека кодирования                   : libebml v0.7.9 + libmatroska v0.8.1
Видео
Идентификатор                            : 1
Формат                                   : AVC
Формат/Информация                        : Advanced Video Codec
Профиль формата                          : High@L3.1
Параметр CABAC формата                   : Да
Параметр ReFrames формата                : 8 кадров
Идентификатор кодека                     : V_MPEG4/ISO/AVC
Продолжительность                        : 1 ч. 3 м.
Битрейт                                  : 1700 Кбит/сек
Ширина                                   : 720 пикселей
Высота                                   : 448 пикселей
Соотношение сторон                       : 1,607
Режим частоты кадров                     : Постоянный
Частота кадров                           : 25,000 кадров/сек
Цветовое пространство                    : YUV
Субдискретизация насыщенности            : 4:2:0
Битовая глубина                          : 8 бит
Тип развёртки                            : Прогрессивная
Бит/(Пиксели*Кадры)                      : 0.211
Размер потока                            : 762 Мбайт (87%)
Библиотека кодирования                   : x264 core 92 r1510 33d382a
Настройки программы                      : cabac=1 / ref=8 / deblock=1:-1:-1 / analyse=0x3:0x133 / me=umh / subme=7 / psy=1 / psy_rd=1.00:0.10 / mixed_ref=1 / me_range=16 / chroma_me=1 / trellis=2 / 8x8dct=1 / cqm=0 / deadzone=21,11 / fast_pskip=0 / chroma_qp_offset=-3 / threads=3 / sliced_threads=0 / nr=0 / decimate=1 / interlaced=0 / constrained_intra=0 / bframes=3 / b_pyramid=2 / b_adapt=2 / b_bias=0 / direct=3 / wpredb=1 / wpredp=2 / keyint=250 / keyint_min=25 / scenecut=40 / intra_refresh=0 / rc_lookahead=50 / rc=2pass / mbtree=1 / bitrate=1700 / ratetol=1.0 / qcomp=0.60 / qpmin=10 / qpmax=51 / qpstep=4 / cplxblur=20.0 / qblur=0.5 / ip_ratio=1.40 / aq=1:1.00
Default                                  : Да
Forced                                   : Нет
Аудио
Идентификатор                            : 2
Формат                                   : MPEG Audio
Версия формата                           : Version 1
Профиль формата                          : Layer 3
Режим                                    : Joint stereo
Расширение режима                        : MS Stereo
Идентификатор кодека                     : A_MPEG/L3
Идентификатор кодека/Подсказка           : MP3
Продолжительность                        : 1 ч. 3 м.
Вид битрейта                             : Переменный
Битрейт                                  : 208 Кбит/сек
Минимальный битрейт                      : 32,0 Кбит/сек
Каналы                                   : 2 канала
Частота                                  : 48,0 КГц
Метод сжатия                             : С потерями
Размер потока                            : 95,0 Мбайт (11%)
Библиотека кодирования                   : LAME3.98r
Настройки программы                      : -m j -V 0 -q 0 -lowpass 19.5 --vbr-new -b 32
Default                                  : Да
Forced                                   : Нет
-Скриншоты:


[trackeroc.ru].9708.torrent 
 ЗОЛОТАЯ РАЗДАЧА! СКАЧАННОЕ НЕ ЗАСЧИТЫВАЕТСЯ! 
Торрент: Зарегистрирован   [ 2015-11-13 02:10 ]

Скачать торрент

18 KB

Статус: проверено
Скачан: 38 раз
Размер: 874 MB
 

max+100600 (13-ноя-15)
Похожие торренты
Форум Тема Автор Размер
Отечественный Рок, Панк, Метал, Альтернатива Z-exit - 3д в кино (2016) [MP3|320 Kbps] <Rock> BiOS 65 MB
Зарубежные Angry Birds в кино / The Angry Birds Movie (2016) HDRip | iTunes Admin 1.37 GB
Зарубежные Снупи и мелочь пузатая в кино / The Peanuts Movie (2015) WEB-DLRip Admin 1.37 GB
Ужасы мистика триллеры Виктор Франкенштейн / Victor Frankenstein (2015) HDRip Admin 2.05 GB
Фантастика Фэнтези Виктор Франкенштейн / Victor Frankenstein (2015) WEB-DLRip [H.264] Admin 1.46 GB

_________________
[Профиль] [ЛС]
Показать сообщения:    
Ответить на тему

Текущее время: Сегодня 13:37

Часовой пояс: GMT + 4



Вы не можете начинать темы
Вы не можете отвечать на сообщения
Вы не можете редактировать свои сообщения
Вы не можете удалять свои сообщения
Вы не можете голосовать в опросах
Вы не можете прикреплять файлы к сообщениям
Вы можете скачивать файлы