Книга Илая / The Book of Eli (2010) BDRip [H.264]

Ответить на тему

Статистика раздачи [Обновить пиров]
Размер:  4.61 GB   |    Зарегистрирован:  1 год 1 месяц   |    Скачан:  2 раза

Полного источника не было: 2 месяца 7 дней

 
 
 
 
Автор Сообщение

BiOS ®

Стаж: 2 года 7 месяцев

Сообщений: 1732

Откуда: Raccoon City


Пост 24-Окт-2015 12:07

[Цитировать]

Книга Илая / The Book of Eli
« Одни готовы убивать, чтобы завладеть ею. Он готов убивать, чтобы защитить её »
- Производство: США / Alcon Entertainment, Silver Pictures
Жанр: Боевик, Триллер, Драма, Приключения
Режиссер: Альберт Хьюз, Аллен Хьюз
Актеры: Дензел Вашингтон, Гари Олдман, Мила Кунис, Рэй Стивенсон, Дженнифер Билз, Малкольм МакДауэлл, Фрэнсис де ла Тур, Майкл Гэмбон, Том Уэйтс, Ивэн Джонс, Джо Пинг, Крис Браунинг, Ричард Цетрон, Кит Дэвис, Латиф Кроудер, Том Уильямс
Описание: После мировой катастрофы Америка превратилась в выжженную пустыню. По бескрайним дорогам, кишащим бандами, враждующими между собой за воду и еду, странствует мудрый Илай. Однажды он прибывает в мрачные края, где когда-то была цветущая Калифорния, а теперь это сущий ад, где бесчинствует тиран Карнеги.
Возраст: 18+ (зрителям, достигшим 18 лет. запрещено для детей)
Рейтинг MPAA: R (лицам до 17 лет обязательно присутствие взрослого)
Продолжительность: 01:57:36
Качество видео: BDRip
Перевод: Дублированный, одноголосый закадровый
Вид субтитров: Вшитые отключаемые
Язык субтитров: Русский, Английский
Видео: MPEG-4 AVC/H.264, 3500 Kbps, 1024x426
Аудио 1: Русский AC3 5.1, 384 Kbps, 48.0 KHz (Дублированный) R5
Аудио 2: Русский AC3 5.1, 384 Kbps, 48.0 KHz (Одноголосый закадровый) Ю. Сербин
Аудио 3: Русский AC3 5.1, 448 Kbps, 48.0 KHz (Одноголосый закадровый) А. Гаврилов
Аудио 4: Русский AC3 5.1, 448 Kbps, 48.0 KHz (Одноголосый закадровый) Д. Есарев
Аудио 5: Английский AC3 5.1, 448 Kbps, 48.0 KHz (Оригинал)

MediaInfo

Код:
Общее
Полное имя                               : Книга Илая.mkv
Формат                                   : Matroska
Версия формата                           : Version 1
Размер файла                             : 4,61 Гбайт
Продолжительность                        : 1 ч. 57 м.
Общий поток                              : 5618 Кбит/сек
Дата кодирования                         : UTC 2015-10-23 06:03:41
Программа кодирования                    : mkvmerge v2.4.1 ('Use Me') built on Dec  5 2008 18:30:05
Библиотека кодирования                   : libebml v0.7.7 + libmatroska v0.8.1
Видео
Идентификатор                            : 1
Формат                                   : AVC
Формат/Информация                        : Advanced Video Codec
Профиль формата                          : High@L4.1
Параметр CABAC формата                   : Да
Параметр ReFrames формата                : 10 кадров
Идентификатор кодека                     : V_MPEG4/ISO/AVC
Продолжительность                        : 1 ч. 57 м.
Битрейт                                  : 3500 Кбит/сек
Ширина                                   : 1024 пикселя
Высота                                   : 426 пикселей
Соотношение сторон                       : 2,40:1
Режим частоты кадров                     : Постоянный
Частота кадров                           : 23,976 кадра/сек
Цветовое пространство                    : YUV
Субдискретизация насыщенности            : 4:2:0
Битовая глубина                          : 8 бит
Тип развёртки                            : Прогрессивная
Бит/(Пиксели*Кадры)                      : 0.335
Размер потока                            : 2,79 Гбайт (60%)
Заголовок                                : Книга Илая (2010)
Библиотека кодирования                   : x264 core 142 r2431 ac76440
Настройки программы                      : cabac=1 / ref=10 / deblock=1:-3:-3 / analyse=0x3:0x133 / me=umh / subme=10 / psy=1 / psy_rd=1.00:0.10 / mixed_ref=1 / me_range=48 / chroma_me=1 / trellis=2 / 8x8dct=1 / cqm=0 / deadzone=21,11 / fast_pskip=0 / chroma_qp_offset=-3 / threads=6 / lookahead_threads=1 / sliced_threads=0 / nr=0 / decimate=1 / interlaced=0 / bluray_compat=0 / constrained_intra=0 / bframes=5 / b_pyramid=2 / b_adapt=2 / b_bias=0 / direct=3 / weightb=1 / open_gop=0 / weightp=2 / keyint=240 / keyint_min=22 / scenecut=40 / intra_refresh=0 / rc_lookahead=40 / rc=2pass / mbtree=1 / bitrate=3500 / ratetol=1.0 / qcomp=0.60 / qpmin=10 / qpmax=51 / qpstep=4 / cplxblur=20.0 / qblur=0.5 / ip_ratio=1.40 / aq=1:1.00
Язык                                     : English
Default                                  : Да
Forced                                   : Нет
Аудио #1
Идентификатор                            : 2
Формат                                   : AC-3
Формат/Информация                        : Audio Coding 3
Расширение режима                        : CM (complete main)
Параметр Endianness формата              : Big
Идентификатор кодека                     : A_AC3
Продолжительность                        : 1 ч. 57 м.
Вид битрейта                             : Постоянный
Битрейт                                  : 384 Кбит/сек
Каналы                                   : 6 каналов
Расположение каналов                     : Front: L C R, Side: L R, LFE
Частота                                  : 48,0 КГц
Метод сжатия                             : С потерями
Размер потока                            : 323 Мбайт (7%)
Заголовок                                : AC3 (Дублированный) R5
Язык                                     : Russian
Default                                  : Да
Forced                                   : Нет
Аудио #2
Идентификатор                            : 3
Формат                                   : AC-3
Формат/Информация                        : Audio Coding 3
Расширение режима                        : CM (complete main)
Параметр Endianness формата              : Big
Идентификатор кодека                     : A_AC3
Продолжительность                        : 1 ч. 57 м.
Вид битрейта                             : Постоянный
Битрейт                                  : 384 Кбит/сек
Каналы                                   : 6 каналов
Расположение каналов                     : Front: L C R, Side: L R, LFE
Частота                                  : 48,0 КГц
Метод сжатия                             : С потерями
Размер потока                            : 323 Мбайт (7%)
Заголовок                                : AC3 (Одноголосый) Ю. Сербин
Язык                                     : Russian
Default                                  : Нет
Forced                                   : Нет
Аудио #3
Идентификатор                            : 4
Формат                                   : AC-3
Формат/Информация                        : Audio Coding 3
Расширение режима                        : CM (complete main)
Параметр Endianness формата              : Big
Идентификатор кодека                     : A_AC3
Продолжительность                        : 1 ч. 57 м.
Вид битрейта                             : Постоянный
Битрейт                                  : 448 Кбит/сек
Каналы                                   : 6 каналов
Расположение каналов                     : Front: L C R, Side: L R, LFE
Частота                                  : 48,0 КГц
Метод сжатия                             : С потерями
Размер потока                            : 377 Мбайт (8%)
Заголовок                                : AC3 (Одноголосый) А. Гаврилов
Язык                                     : Russian
Default                                  : Нет
Forced                                   : Нет
Аудио #4
Идентификатор                            : 5
Формат                                   : AC-3
Формат/Информация                        : Audio Coding 3
Расширение режима                        : CM (complete main)
Параметр Endianness формата              : Big
Идентификатор кодека                     : A_AC3
Продолжительность                        : 1 ч. 57 м.
Вид битрейта                             : Постоянный
Битрейт                                  : 448 Кбит/сек
Каналы                                   : 6 каналов
Расположение каналов                     : Front: L C R, Side: L R, LFE
Частота                                  : 48,0 КГц
Метод сжатия                             : С потерями
Размер потока                            : 377 Мбайт (8%)
Заголовок                                : AC3 (Одноголосый) Д. Есарев
Язык                                     : Russian
Default                                  : Нет
Forced                                   : Нет
Аудио #5
Идентификатор                            : 6
Формат                                   : AC-3
Формат/Информация                        : Audio Coding 3
Расширение режима                        : CM (complete main)
Параметр Endianness формата              : Big
Идентификатор кодека                     : A_AC3
Продолжительность                        : 1 ч. 57 м.
Вид битрейта                             : Постоянный
Битрейт                                  : 448 Кбит/сек
Каналы                                   : 6 каналов
Расположение каналов                     : Front: L C R, Side: L R, LFE
Частота                                  : 48,0 КГц
Метод сжатия                             : С потерями
Размер потока                            : 377 Мбайт (8%)
Заголовок                                : AC3 (Оригинал)
Язык                                     : English
Default                                  : Нет
Forced                                   : Нет
Текст #1
Идентификатор                            : 7
Формат                                   : UTF-8
Идентификатор кодека                     : S_TEXT/UTF8
Идентификатор кодека/Информация          : UTF-8 Plain Text
Заголовок                                : Русские
Язык                                     : Russian
Default                                  : Нет
Forced                                   : Нет
Текст #2
Идентификатор                            : 8
Формат                                   : UTF-8
Идентификатор кодека                     : S_TEXT/UTF8
Идентификатор кодека/Информация          : UTF-8 Plain Text
Заголовок                                : Английские
Язык                                     : English
Default                                  : Нет
Forced                                   : Нет

Дополнительная информация

» Два раза в фильме можно услышать мелодию из фильма «Однажды в Америке», которую насвистывает кто-то из людей Карнеги.
» В одной из сцен фильма можно заметить известный роман Дэна Брауна «Код Да Винчи».
» Для съемок в фильме Дензел Вашингтон обучался боевым искусствам у Дэна Иносанто, протеже Брюса Ли.
» В своё время роль подруги главного героя предлагали сыграть актрисе Кристен Стюарт, но та вынуждена была отказаться из-за плотного съемочного графика и работы над лентой «Новолуние».
» Во время сцены задержания Илая и помещения его в тюрьму по приказу Карнеги на стене можно увидеть плакат фильма «Парень и его пес» (1974).
Скриншоты:


Смотреть онлайн

[trackeroc.ru].9156.torrent 
Торрент: Зарегистрирован   [ 2015-10-24 12:09 ]

Скачать торрент

12 KB

Статус: проверено
Скачан: 40 раз
Размер: 4.61 GB
 

Похожие торренты
Форум Тема Автор Размер
Фантастика Фэнтези Таймлесс 3: Изумрудная книга / Smaragdgrun (2016) HDRip BiOS 1.46 GB
Фантастика Фэнтези Таймлесс 2: Сапфировая книга / Saphirblau (2014) BDRip [H.264] BiOS 2.18 GB
Фантастика Фэнтези Таймлесс: Рубиновая книга / Rubinrot (2013) HDRip BiOS 1.45 GB
Квесты , я ищу , Поиск предметов Hidden Object The Keeper of Antiques: The Revived Book Collector's Edition / Антиквар: Возрожденная книга.[P] [RUS / ENG] (2016) HOPE 1.36 GB
Приключения Книга джунглей / The Jungle Book (2016) DVDRip [Line] BiOS 1.46 GB

_________________
[Профиль] [ЛС]
Показать сообщения:    
Ответить на тему

Текущее время: Сегодня 01:46

Часовой пояс: GMT + 4



Вы не можете начинать темы
Вы не можете отвечать на сообщения
Вы не можете редактировать свои сообщения
Вы не можете удалять свои сообщения
Вы не можете голосовать в опросах
Вы не можете прикреплять файлы к сообщениям
Вы можете скачивать файлы