Код 100 / The Hundred Code [2015] Серии: 1-12

Ответить на тему

Статистика раздачи [Обновить пиров]
Скачали
Размер:  5.83 GB   |    Зарегистрирован:  1 год 3 месяца   |    Скачан:  4 раза

Полного источника не было: 27 дней

 
 
 
 
Автор Сообщение

Admin ®

Стаж: 7 месяцев 15 дней

Сообщений: 4460

Откуда: trackeroc.ru


Пост 05-Сен-2015 14:39

[Цитировать]

Код 100 / The Hundred Code
Год выпуска: 2015
Страна: Швеция, Германия
Жанр: Детектив, криминал, драма
Продолжительность: 00:50:00
Перевод: Профессиональный (многоголосый закадровый) Эй Би Видео
Режиссёр: Роберт Мореско, Андреас Ёманн
В ролях: Микаэл Нюквист, Доминик Монаган, Фелисе Янкелль, Шарлотта Йонсон, Данило Беджарано, Кристоффер Берглунд, Питер Эггерс, Ройзин Мерфи, Кристиан Свенссон
Описание: В Стокгольме регулярно происходят странные преступления: тела убитых девушек, уложенных на постель из нарциссов, обнаруживаются в разных местах города. Местная полиция выписывает из Нью-Йорка детектива Томми Конли в качестве консультанта, и вместе со шведским полицейским Микаэлем Эклундом он начинает расследование этого запутанного дела.
Сэмпл: http://sendfile.su/1151723
Качество: WEB-DLRip
Формат: AVI
Видео: 720 x 400 (16:9), XviD, 25.000 fps, ~ 1500 Kbps
Аудио: MP3, 44.1 KHz, 2 ch, 128 kbps
Субтитры: Отсутствуют

MediaInfo

General
Complete name : D:\Torrent0.C0de.S01E01.1TV.WEB-DLRip.avi
Format : AVI
Format/Info : Audio Video Interleave
File size : 505 MiB
Duration : 43mn 6s
Overall bit rate : 1 638 Kbps
Writing application : VirtualDubMod 1.5.10.2 (build 2540/release)
Writing library : VirtualDubMod build 2540/release
Video
ID : 0
Format : MPEG-4 Visual
Format profile : Advanced Simple@L5
Format settings, BVOP : 2
Format settings, QPel : No
Format settings, GMC : No warppoints
Format settings, Matrix : Custom
Codec ID : XVID
Codec ID/Hint : XviD
Duration : 43mn 6s
Bit rate : 1 500 Kbps
Width : 720 pixels
Height : 400 pixels
Display aspect ratio : 16:9
Frame rate : 25.000 fps
Color space : YUV
Chroma subsampling : 4:2:0
Bit depth : 8 bits
Scan type : Progressive
Compression mode : Lossy
Bits/(Pixel*Frame) : 0.208
Stream size : 462 MiB (92%)
Writing library : XviD 1.2.1 (UTC 2008-12-04)
Audio
ID : 1
Format : MPEG Audio
Format version : Version 1
Format profile : Layer 3
Codec ID : 55
Codec ID/Hint : MP3
Duration : 43mn 6s
Bit rate mode : Constant
Bit rate : 128 Kbps
Channel(s) : 2 channels
Sampling rate : 44.1 KHz
Compression mode : Lossy
Stream size : 39.5 MiB (8%)
Alignment : Split accross interleaves
Interleave, duration : 40 ms (1.00 video frame)
Interleave, preload duration : 500 ms

Скриншоты


Релиз

AlexFilm
Озвучивание: профессиональное многоголосое [Эй Би Видео по заказу Первого канала]

Внимание! Раздача ведётся путём добавления новых серий

Внимание! Раздача ведётся путём добавления новых серий; при каждом добавлении создаётся новый торрент. Чтобы начать докачку новой серии, пользователям необходимо сделать следующее:
(1) остановить скачивание,
(2) удалить старый торрент у себя из клиента (старые серии удалять не надо),
(3) скачать новый торрент и запустить его у себя в клиенте вместо старого, при этом указать клиенту путь в старую папку куда и должно происходить скачивание новых серий.
Ваш клиент при этом должен произвести хеширование (проверку) старой папки (если не производит сам - помогите ему сделать это), и будет докачивать только те серии которых у вас ещё нет. Старые серии при этом не удаляются, а продолжают раздаваться!
Eсли вы уже удалили старые серии, то предотвратить повторную закачку старых серий можно, отжав галочку в соответствующих местах при запуске нового торрента. По возможности, желательно не удалять старые серии как можно дольше чтобы релизёр не столько продолжал раздавать старые серии, а смог сконцентрироваться на новых.


Смотреть онлайн

[trackeroc.ru].7964.torrent 
Торрент: Зарегистрирован   [ 2015-09-06 18:57 ]

Скачать торрент

16 KB

Статус: проверено
Скачан: 36 раз
Размер: 5.83 GB
 


_________________
[Профиль] [ЛС]
Показать сообщения:    
Ответить на тему

Текущее время: Сегодня 20:27

Часовой пояс: GMT + 4



Вы не можете начинать темы
Вы не можете отвечать на сообщения
Вы не можете редактировать свои сообщения
Вы не можете удалять свои сообщения
Вы не можете голосовать в опросах
Вы не можете прикреплять файлы к сообщениям
Вы можете скачивать файлы