Кома (2019) CAMRip [H.264/720p-LQ] [AD] скачать торрент

Reply to topic

DL-List and Torrent activity [Update пиров]
Size:  3.04 GB   |    Registered:  11 days   |    Completed:  0 times
Seeders:  2  [  1 MB/s  ]   Show peers in full details
 
 
 
 
Author Message

BiOS ®

Longevity: 5 years 9 months

Posts: 2417

Location: Earth


Post 06-Feb-2020 14:12

[Quote]

Кома
«Нам нужно проснуться»
- Производство: Россия / Кинокомпания Большое Кино, Fresh Film, Марс Медиа Энтертейнмент
Жанр: Фантастика, фэнтези, боевик, приключения
Режиссер: Никита Аргунов
Актеры: Риналь Мухаметов, Любовь Аксенова, Антон Пампушный, Милош Бикович, Константин Лавроненко, Полина Кузьминская, Ростислав Гулбис, Вилен Бабичев, Игорь Сигаев, Евгения Каратыгина
Описание:
После таинственной и страшной аварии молодой, талантливый архитектор приходит в себя в очень странном мире, лишь частично похожем на реальность. Мире, который существует на основе памяти о реальности людей, находящихся в глубокой коме. Память человека фрагментарна, хаотична и непостоянна. Таково и пространство КОМЫ — причудливый набор из воспоминаний, в котором реки, ледники и города могут умещаться в одной комнате, где любые законы физики могут быть нарушены. Герою предстоит выяснить, по каким законам существует это пространство, бороться за жизнь, встретить любовь, найти, наконец, выход в реальный мир и осознать его по-новому, поняв, что такое КОМА на самом деле.

Возраст: 16+ (зрителям, достигшим 16 лет)
Дата мировой премьеры: 19 ноября 2019
Дата премьеры в России: 30 января 2020

Продолжительность: 01:45:44
Качество видео: CAMRip
Перевод: Не требуется (русский)
Субтитры: Отсутствуют
Реклама: Присутствует баннер.
Видео: AVC/H.264, 1280x536, ~3650 Kbps
Аудио: AC-3, 2 ch, 384 Kbps

MediaInfo:

Общее
Полное имя : Koma.2019.CAMRip.720p-LQ.mkv
Формат : Matroska
Версия формата : Version 2
Размер файла : 3,04 Гбайт
Продолжительность : 1 ч. 45 м.
Режим общего битрейта : Переменный
Общий поток : 4116 Кбит/сек
Программа кодирования : libmatroska 1.4.1
Библиотека кодирования : SolveigMM Matroska Muxer Version 1.0.1502.31
Видео
Идентификатор : 1
Формат : AVC
Формат/Информация : Advanced Video Codec
Профиль формата : High@L4.1
Настройки формата : CABAC / 4 Ref Frames
Параметр CABAC формата : Да
Параметр RefFrames формата : 4 кадра
Идентификатор кодека : V_MPEG4/ISO/AVC
Продолжительность : 1 ч. 45 м.
Вид битрейта : Переменный
Битрейт : 3650 Кбит/сек
Максимальный битрейт : 4000 Кбит/сек
Ширина : 1280 пикселей
Высота : 536 пикселей
Соотношение сторон : 2,40:1
Режим частоты кадров : Постоянный
Частота кадров : 23,976 (24000/1001) кадра/сек
Стандарт вещания : Component
Цветовое пространство : YUV
Субдискретизация насыщенности : 4:2:0
Битовая глубина : 8 бит
Тип развёртки : Прогрессивная
Бит/(Пиксели*Кадры) : 0.222
Размер потока : 2,70 Гбайт (89%)
Default : Нет
Forced : Нет
Цветовой диапазон : Limited
Основные цвета : BT.709
Характеристики трансфера : BT.709
Коэффициенты матрицы : BT.709
Аудио
Идентификатор : 2
Формат : AC-3
Формат/Информация : Audio Coding 3
Коммерческое название : Dolby Digital
Идентификатор кодека : A_AC3
Продолжительность : 1 ч. 45 м.
Вид битрейта : Постоянный
Битрейт : 384 Кбит/сек
Каналы : 2 канала
ChannelLayout : L R
Частота : 48,0 КГц
Частота кадров : 31,250 кадров/сек (1536 SPF)
Метод сжатия : С потерями
Размер потока : 290 Мбайт (9%)
Язык : Russian
ServiceKind/String : Complete Main
Default : Нет
Forced : Нет
-Скриншоты:


Смотреть онлайн


[trackeroc.org].29903.torrent 
Torrent: Registered   [ 2020-02-06 14:12 ]

Скачать торрент

16 KB

Status: T temporary
Completed: 12 times
Size: 3.04 GB
 

Admin (06-фев-20)
Similar torrent
Forum Topic Author Size
RPG, ролевые игры WARSAW [Build 103] [RUS + ENG + 3] (2019) Admin 2.12 GB
Strategy, Стратегии Esports Life Tycoon v1.0.1 (2019) (ENG) Early Access Admin 982 MB
Action, экшены Volcanoids v1.22.77.0 (2019) (RUS/ENG) [Ранний доступ] Admin 2 GB
Strategy, Стратегии Z Dawn v1.1.0.0 (2019) (ENG) Admin 71 MB
Visual Novel, Визуальные новеллы Tales Of Androgyny v0.2.21.2 (2019) (RUS/ENG) Admin 7.75 GB

_________________
[Profile] [PM]
Display posts from previous:    
Reply to topic

The time now is: Today 23:51

All times are GMT + 4 Hours



You cannot post new topics in this forum
You cannot reply to topics in this forum
You cannot edit your posts in this forum
You cannot delete your posts in this forum
You cannot vote in polls in this forum
You cannot attach files in this forum
You can download files in this forum