Коммандос / Commando (1985) BDRip [H.264]

Ответить на тему

Статистика раздачи [Обновить пиров]
Размер:  4.55 GB   |    Зарегистрирован:  1 год   |    Скачан:  1 раз

Полного источника не было: 4 месяца 3 дня

 
 
 
 
Автор Сообщение

BiOS ®

Стаж: 2 года 7 месяцев

Сообщений: 1742

Откуда: Raccoon City


Пост 13-Ноя-2015 01:58

[Цитировать]

Коммандос / Commando
« Somewhere... somehow... someone's going to pay! »
- Производство: США / 20th Century Fox Film Corporation, Silver Pictures, SLM Production Group
Жанр: Боевик, Триллер, Приключения
Режиссер: Марк Л. Лестер
Актеры: Арнольд Шварценеггер, Рей Дон Чонг, Дэн Хедайя, Вернон Уэллс, Джеймс Олсон, Дэвид Патрик Келли, Алисса Милано, Билл Дьюк, Дрю Снайдер, Шэрон Уайатт, Майкл ДеЛано, Боб Майнор, Майкл Адамс, Гэри Сервантес, Ленни Джулиано, Чарльз Мешак, Челси Филд, Джули Хайек, Хэнк Калиа, Уолтер Скотт, Грег Уэйн Элам, Джордж Фишер, Фил Эдамс, Ава Каделл, Микул Робинс, Брэнском Ричмонд, Билл Пэкстон
Описание: Бывший командир спецотряда, участвовавшего в секретных операциях на Ближнем Востоке, СССР и Центральной Америке, полковник в отставке Джон Матрикс, под другим именем, живёт в большом доме, вдали от города, вместе со своей одиннадцатилетней дочерью Дженни, пока её не похищает бывший товарищ Джона…
Возраст: 16+ (зрителям, достигшим 16 лет)
Рейтинг MPAA: R (лицам до 17 лет обязательно присутствие взрослого)
Продолжительность: 01:30:16
Качество видео: BDRip
Перевод: Многоголосый закадровый, двуголосый закадровый, одноголосый закадровый
Язык субтитров: Русский, Английский
Видео: MPEG-4 AVC/H.264, 3500 Kbps, 1024x556
Аудио 01: Русский AC3 2.0, 192 Kbps, 48.0 KHz (Многоголосый закадровый) R5
Аудио 02: Русский AC3 5.1, 448 Kbps, 48.0 KHz (Многоголосый закадровый) ОРТ
Аудио 03: Русский AC3 5.1, 448 Kbps, 48.0 KHz (Многоголосый закадровый) Киномания
Аудио 04: Русский AC3 5.1, 448 Kbps, 48.0 KHz (Двуголосый закадровый) П. Гланц и И. Королёва
Аудио 05: Русский AC3 5.1, 448 Kbps, 48.0 KHz (Одноголосый закадровый) А. Гаврилов
Аудио 06: Русский AC3 5.1, 448 Kbps, 48.0 KHz (Одноголосый закадровый) Д. Пучков
Аудио 07: Русский AC3 5.1, 448 Kbps, 48.0 KHz (Одноголосый закадровый) Б. Федоров
Аудио 08: Русский AC3 2.0, 192 Kbps, 48.0 KHz (Одноголосый закадровый) В. Горчаков
Аудио 09: Русский AC3 2.0, 192 Kbps, 48.0 KHz (Одноголосый закадровый) Ю. Толбин
Аудио 10: Английский AC3 5.1, 448 Kbps, 48.0 KHz (Оригинал)

MediaInfo

Код:
Общее
Полное имя                               : Коммандос.mkv
Формат                                   : Matroska
Версия формата                           : Version 1
Размер файла                             : 4,55 Гбайт
Продолжительность                        : 1 ч. 30 м.
Общий поток                              : 7217 Кбит/сек
Дата кодирования                         : UTC 2015-11-12 12:30:09
Программа кодирования                    : mkvmerge v2.4.1 ('Use Me') built on Dec  5 2008 18:30:05
Библиотека кодирования                   : libebml v0.7.7 + libmatroska v0.8.1
Видео
Идентификатор                            : 1
Формат                                   : AVC
Формат/Информация                        : Advanced Video Codec
Профиль формата                          : High@L4.1
Параметр CABAC формата                   : Да
Параметр ReFrames формата                : 10 кадров
Идентификатор кодека                     : V_MPEG4/ISO/AVC
Продолжительность                        : 1 ч. 30 м.
Битрейт                                  : 3500 Кбит/сек
Ширина                                   : 1024 пикселя
Высота                                   : 556 пикселей
Соотношение сторон                       : 1,85:1
Режим частоты кадров                     : Постоянный
Частота кадров                           : 23,976 кадра/сек
Цветовое пространство                    : YUV
Субдискретизация насыщенности            : 4:2:0
Битовая глубина                          : 8 бит
Тип развёртки                            : Прогрессивная
Бит/(Пиксели*Кадры)                      : 0.256
Размер потока                            : 2,12 Гбайт (47%)
Заголовок                                : Коммандос (1985)
Библиотека кодирования                   : x264 core 129 r2230 1cffe9f
Настройки программы                      : cabac=1 / ref=10 / deblock=1:-3:-3 / analyse=0x3:0x133 / me=umh / subme=10 / psy=1 / psy_rd=1.00:0.10 / mixed_ref=1 / me_range=48 / chroma_me=1 / trellis=2 / 8x8dct=1 / cqm=0 / deadzone=21,11 / fast_pskip=0 / chroma_qp_offset=-3 / threads=6 / lookahead_threads=1 / sliced_threads=0 / nr=0 / decimate=1 / interlaced=0 / bluray_compat=0 / constrained_intra=0 / bframes=5 / b_pyramid=2 / b_adapt=2 / b_bias=0 / direct=3 / weightb=1 / open_gop=0 / weightp=2 / keyint=240 / keyint_min=22 / scenecut=40 / intra_refresh=0 / rc_lookahead=40 / rc=2pass / mbtree=1 / bitrate=3500 / ratetol=1.0 / qcomp=0.60 / qpmin=10 / qpmax=51 / qpstep=4 / cplxblur=20.0 / qblur=0.5 / ip_ratio=1.40 / aq=1:1.00
Язык                                     : English
Default                                  : Да
Forced                                   : Нет
Аудио #1
Идентификатор                            : 2
Формат                                   : AC-3
Формат/Информация                        : Audio Coding 3
Расширение режима                        : CM (complete main)
Параметр Endianness формата              : Big
Идентификатор кодека                     : A_AC3
Продолжительность                        : 1 ч. 30 м.
Вид битрейта                             : Постоянный
Битрейт                                  : 192 Кбит/сек
Каналы                                   : 2 канала
Расположение каналов                     : Front: L R
Частота                                  : 48,0 КГц
Метод сжатия                             : С потерями
Размер потока                            : 124 Мбайт (3%)
Заголовок                                : AC3 (Многоголосый) R5
Язык                                     : Russian
Default                                  : Да
Forced                                   : Нет
Аудио #2
Идентификатор                            : 3
Формат                                   : AC-3
Формат/Информация                        : Audio Coding 3
Расширение режима                        : CM (complete main)
Параметр Endianness формата              : Big
Идентификатор кодека                     : A_AC3
Продолжительность                        : 1 ч. 30 м.
Вид битрейта                             : Постоянный
Битрейт                                  : 448 Кбит/сек
Каналы                                   : 6 каналов
Расположение каналов                     : Front: L C R, Side: L R, LFE
Частота                                  : 48,0 КГц
Метод сжатия                             : С потерями
Размер потока                            : 289 Мбайт (6%)
Заголовок                                : AC3 (Многоголосый) ОРТ
Язык                                     : Russian
Default                                  : Нет
Forced                                   : Нет
Аудио #3
Идентификатор                            : 4
Формат                                   : AC-3
Формат/Информация                        : Audio Coding 3
Расширение режима                        : CM (complete main)
Параметр Endianness формата              : Big
Идентификатор кодека                     : A_AC3
Продолжительность                        : 1 ч. 30 м.
Вид битрейта                             : Постоянный
Битрейт                                  : 448 Кбит/сек
Каналы                                   : 6 каналов
Расположение каналов                     : Front: L C R, Side: L R, LFE
Частота                                  : 48,0 КГц
Метод сжатия                             : С потерями
Размер потока                            : 289 Мбайт (6%)
Заголовок                                : AC3 (Многоголосый) Киномания
Язык                                     : Russian
Default                                  : Нет
Forced                                   : Нет
Аудио #4
Идентификатор                            : 5
Формат                                   : AC-3
Формат/Информация                        : Audio Coding 3
Расширение режима                        : CM (complete main)
Параметр Endianness формата              : Big
Идентификатор кодека                     : A_AC3
Продолжительность                        : 1 ч. 30 м.
Вид битрейта                             : Постоянный
Битрейт                                  : 448 Кбит/сек
Каналы                                   : 6 каналов
Расположение каналов                     : Front: L C R, Side: L R, LFE
Частота                                  : 48,0 КГц
Метод сжатия                             : С потерями
Размер потока                            : 289 Мбайт (6%)
Заголовок                                : AC3 (Двухголосый) П. Гланц и И. Королёва
Язык                                     : Russian
Default                                  : Нет
Forced                                   : Нет
Аудио #5
Идентификатор                            : 6
Формат                                   : AC-3
Формат/Информация                        : Audio Coding 3
Расширение режима                        : CM (complete main)
Параметр Endianness формата              : Big
Идентификатор кодека                     : A_AC3
Продолжительность                        : 1 ч. 30 м.
Вид битрейта                             : Постоянный
Битрейт                                  : 448 Кбит/сек
Каналы                                   : 6 каналов
Расположение каналов                     : Front: L C R, Side: L R, LFE
Частота                                  : 48,0 КГц
Метод сжатия                             : С потерями
Размер потока                            : 289 Мбайт (6%)
Заголовок                                : AC3 (Одноголосый) А. Гаврилов
Язык                                     : Russian
Default                                  : Нет
Forced                                   : Нет
Аудио #6
Идентификатор                            : 7
Формат                                   : AC-3
Формат/Информация                        : Audio Coding 3
Расширение режима                        : CM (complete main)
Параметр Endianness формата              : Big
Идентификатор кодека                     : A_AC3
Продолжительность                        : 1 ч. 30 м.
Вид битрейта                             : Постоянный
Битрейт                                  : 448 Кбит/сек
Каналы                                   : 6 каналов
Расположение каналов                     : Front: L C R, Side: L R, LFE
Частота                                  : 48,0 КГц
Метод сжатия                             : С потерями
Размер потока                            : 289 Мбайт (6%)
Заголовок                                : AC3 (Одноголосый) Д. Пучков
Язык                                     : Russian
Default                                  : Нет
Forced                                   : Нет
Аудио #7
Идентификатор                            : 8
Формат                                   : AC-3
Формат/Информация                        : Audio Coding 3
Расширение режима                        : CM (complete main)
Параметр Endianness формата              : Big
Идентификатор кодека                     : A_AC3
Продолжительность                        : 1 ч. 30 м.
Вид битрейта                             : Постоянный
Битрейт                                  : 448 Кбит/сек
Каналы                                   : 6 каналов
Расположение каналов                     : Front: L C R, Side: L R, LFE
Частота                                  : 48,0 КГц
Метод сжатия                             : С потерями
Размер потока                            : 289 Мбайт (6%)
Заголовок                                : AC3 (Одноголосый) Б. Федоров
Язык                                     : Russian
Default                                  : Нет
Forced                                   : Нет
Аудио #8
Идентификатор                            : 9
Формат                                   : AC-3
Формат/Информация                        : Audio Coding 3
Расширение режима                        : CM (complete main)
Параметр Endianness формата              : Big
Идентификатор кодека                     : A_AC3
Продолжительность                        : 1 ч. 30 м.
Вид битрейта                             : Постоянный
Битрейт                                  : 192 Кбит/сек
Каналы                                   : 2 канала
Расположение каналов                     : Front: L R
Частота                                  : 48,0 КГц
Метод сжатия                             : С потерями
Размер потока                            : 124 Мбайт (3%)
Заголовок                                : AC3 (Одноголосый) В. Горчаков
Язык                                     : Russian
Default                                  : Нет
Forced                                   : Нет
Аудио #9
Идентификатор                            : 10
Формат                                   : AC-3
Формат/Информация                        : Audio Coding 3
Расширение режима                        : CM (complete main)
Параметр Endianness формата              : Big
Идентификатор кодека                     : A_AC3
Продолжительность                        : 1 ч. 30 м.
Вид битрейта                             : Постоянный
Битрейт                                  : 192 Кбит/сек
Каналы                                   : 2 канала
Расположение каналов                     : Front: L R
Частота                                  : 48,0 КГц
Метод сжатия                             : С потерями
Размер потока                            : 124 Мбайт (3%)
Заголовок                                : AC3 (Одноголосый) Ю. Толбин
Язык                                     : Russian
Default                                  : Нет
Forced                                   : Нет
Аудио #10
Идентификатор                            : 11
Формат                                   : AC-3
Формат/Информация                        : Audio Coding 3
Расширение режима                        : CM (complete main)
Параметр Endianness формата              : Big
Идентификатор кодека                     : A_AC3
Продолжительность                        : 1 ч. 30 м.
Вид битрейта                             : Постоянный
Битрейт                                  : 448 Кбит/сек
Каналы                                   : 6 каналов
Расположение каналов                     : Front: L C R, Side: L R, LFE
Частота                                  : 48,0 КГц
Метод сжатия                             : С потерями
Размер потока                            : 289 Мбайт (6%)
Заголовок                                : AC3 (Оригинал)
Язык                                     : English
Default                                  : Нет
Forced                                   : Нет
Текст #1
Идентификатор                            : 12
Формат                                   : UTF-8
Идентификатор кодека                     : S_TEXT/UTF8
Идентификатор кодека/Информация          : UTF-8 Plain Text
Заголовок                                : Русские
Язык                                     : Russian
Default                                  : Нет
Forced                                   : Нет
Текст #2
Идентификатор                            : 13
Формат                                   : UTF-8
Идентификатор кодека                     : S_TEXT/UTF8
Идентификатор кодека/Информация          : UTF-8 Plain Text
Заголовок                                : Английские
Язык                                     : English
Default                                  : Нет
Forced                                   : Нет

Дополнительная информация

» По словам Уэллса, костюмеры нашли ему одежду на несколько размеров меньше, дабы он выглядел ещё более мерзко. Сам Вернон шуточно называет Беннета «Фредди Меркьюрри на стероидах».
» Актёр Вернон Уэллс (Беннетт) пробовался на роль полковника Мэтрикса.
» Песня, звучащая в концовке, — это We Fight for Love (иногда упоминается ещё как Somewhere, Somehow, Someone`s Gotta Pay) группы Power Station.
» Изначально предполагалось, что фильм будет снимать режиссёр Джон МакТирнан, но он отказался. А спустя два года, в 1987, он согласился снять фильм «Хищник» также со Шварценеггером в главной роли.
» Просторный супермаркет Sherman Oaks Galleria, в котором как Тарзан летал герой Шварценеггера, потом будет снят и в другом его фильме — в «Терминаторе 2».
» Дом, в котором происходит финальная перестрелка между Мэтриксом и Ариусом, — это тот же дом, в котором снималась заключительная перестрелка между Фоли и Мэйтландом в фильме «Полицейский из Беверли-Хиллз».
» В качестве оператора радара снялся известный в будущем актёр Билл Пэкстон.
» К фильму задумывался сиквел, но так и не был снят из-за незаинтересованности Шварценеггера. Сценарий несостоявшегося сиквела был переписан и превратился в фильм «Крепкий орешек», снятый в 1988 году и подаривший миру нового супергероя (Брюс Уиллис).
» Из режиссёрской версии картины становится известно, что мать Дженни умерла при родах.
» Арнольд согласился исполнить главную роль, по его словам это был первый сценарий со времён успеха «Терминатора», где ему не предлагали вновь стать роботом.
» Вернон Уэллс вне съёмочной площадки был очень обаятельным и приятным парнем, тем более удивительным выглядело его перевоплощение в изувера Беннета. Однажды, после съёмок сцены драки на ножах, Лестер сказал следующее: «Закончили. И не подпускайте ко мне Беннета».
» Арнольд стремился самостоятельно исполнять все трюки, не используя дублёра, даже в известной сцене, где на скорости 65 миль в час приходилось висеть, держась за шасси самолёта. Цена? Выбитое плечо и несколько швов на руке и локте.
-Скриншоты:


Смотреть онлайн

[trackeroc.ru].9704.torrent 
 СЕРЕБРЯНАЯ РАЗДАЧА! СКАЧАННОЕ ЗАСЧИТЫВАЕТСЯ ТОЛЬКО НАПОЛОВИНУ! 
Торрент: Зарегистрирован   [ 2015-11-13 01:58 ]

Скачать торрент

12 KB

Статус: проверено
Скачан: 25 раз
Размер: 4.55 GB
 

Похожие торренты
Форум Тема Автор Размер
Xbox 360 | Freeboot Bionic Commando (2009) [Ru] [RegionFree] [FreeBoot] [License] [Xbox360] BiOS 6.54 GB
Саундтреки к играм Bionic Commando "The Soundtrack" - 2009, MP3 (tracks), 320 kbps (OST) BiOS 140 MB
XBox 360 | Игры Bionic Commando Rearmed (2008) [RUS-1С|R.G.DShock) XBox 360 Admin 224 MB
Инди игры Ultimate Space Commando [RePack] [ENG] (2015) (v.1.0.1.3) Admin 917 MB

_________________
[Профиль] [ЛС]

BiOS ®

Стаж: 2 года 7 месяцев

Сообщений: 1742

Откуда: Raccoon City


Пост 13-Ноя-2015 02:02 (спустя 3 минуты)

[Цитировать]

Культовый кин. один из лучших Шварца 

_________________
[Профиль] [ЛС]
Показать сообщения:    
Ответить на тему

Текущее время: Сегодня 13:52

Часовой пояс: GMT + 4



Вы не можете начинать темы
Вы не можете отвечать на сообщения
Вы не можете редактировать свои сообщения
Вы не можете удалять свои сообщения
Вы не можете голосовать в опросах
Вы не можете прикреплять файлы к сообщениям
Вы можете скачивать файлы