Корабль (2013) WEB-DLRip [H.264/720p-LQ] (сезон 1, серии 1-26 из 26)

Ответить на тему

Статистика раздачи [Обновить пиров]
Размер:  17.16 GB   |    Зарегистрирован:  1 год   |    Скачан:  1 раз

Полного источника не было: 10 месяцев 13 дней

 
 
 
 
Автор Сообщение

BiOS ®

Стаж: 2 года 7 месяцев

Сообщений: 1736

Откуда: Raccoon City


Пост 15-Ноя-2015 13:24

[Цитировать]

Корабль - Производство: Россия / "Yellow, Black and White", при участии кинокомпании "Мэйнстрим фильм" и телеканала "Ю"
Жанр: Мистика, триллер, фантастика, приключения, мелодрама
Режиссер: Олег Асадулин, Марк Горобец
Актеры: Дмитрий Певцов, Агриппина Стеклова, Владимир Виноградов, Роман Курцын, Матвей Зубалевич, Ингрид Олеринская, Сергей Друзьяк, Александр Пугачёв (II), Илья Иосифов, Дарья Храмцова, Ярослава Базаева, Ирина Антоненко, Юлия Агафонова, Илья Любимов, Мария Малиновская, Вячеслав Бондарчук, Анастасия Сорокина, Дмитрий Горевой, Руслан Садковский, Фёдор Сухов, Константин Косинский, Павел Крайнов, Захар Розин, Александр Барановский, Эвклид Кюрдзидис, Андрей Андреев (I), Ирис Иванова, Влад Канопка, Татьяна Космачёва, Ольга Ефремова, Ангелина Добророднова и др.
Описание:
Что может быть лучше путешествия на настоящем паруснике? Бескрайнее море, солнце, романтика, будет, о чем рассказать друзьям. На это рассчитывали двадцать курсантов, поднявшись на борт учебного парусного судна «Бегущая по волнам».
Но беззаботный отдых длился недолго. Взрыв адронного коллайдера приводит к глобальной катастрофе, в результате которой все материки ушли под воду. Возможно, единственными выжившими людьми на планете оказались пассажиры «Бегущей по волнам». Корабль становится их единственным домом. Правила жизни меняются. Никто не знает, что будет завтра.
Продолжительность: ~ 00:48:00 серия
Качество видео: WEB-DLRip
Видео: AVC/H.264, 1280x674 (16:9), ~1800 Kbps
Аудио: AC3, 2 ch, 192 Kbps

MediaInfo:

Код:
Общее
Уникальный идентификатор                 : 230800869471374572262780374653243083139 (0xADA2A16D125F00DCB3440B9ADA1DC983)
Полное имя                               : E:\DOWNLOADS\Корабль (1 сезон) (2013) WEB-DLRip 720\Корабль - 01 серия.mkv
Формат                                   : Matroska
Версия формата                           : Version 2
Размер файла                             : 700 Мбайт
Продолжительность                        : 48 м.
Режим общего битрейта                    : Переменный
Общий поток                              : 1999 Кбит/сек
Дата кодирования                         : UTC 2015-11-14 17:06:55
Программа кодирования                    : mkvmerge v7.8.0 ('River Man') 32bit built on Apr  3 2015 12:11:22
Библиотека кодирования                   : libebml v1.3.1 + libmatroska v1.4.2
Видео
Идентификатор                            : 1
Формат                                   : AVC
Формат/Информация                        : Advanced Video Codec
Профиль формата                          : High@L3.1
Параметр CABAC формата                   : Да
Параметр ReFrames формата                : 3 кадра
Идентификатор кодека                     : V_MPEG4/ISO/AVC
Продолжительность                        : 48 м.
Вид битрейта                             : Переменный
Битрейт                                  : 1800 Кбит/сек
Максимальный битрейт                     : 40,0 Мбит/сек
Ширина                                   : 1280 пикселей
Высота                                   : 674 пикселя
Соотношение сторон                       : 1,899
Режим частоты кадров                     : Постоянный
Частота кадров                           : 25,000 кадров/сек
Цветовое пространство                    : YUV
Субдискретизация насыщенности            : 4:2:0
Битовая глубина                          : 8 бит
Тип развёртки                            : Прогрессивная
Бит/(Пиксели*Кадры)                      : 0.083
Размер потока                            : 619 Мбайт (88%)
Библиотека кодирования                   : x264 core 142 r2389 956c8d8
Настройки программы                      : cabac=1 / ref=3 / deblock=1:0:0 / analyse=0x3:0x133 / me=umh / subme=7 / psy=1 / psy_rd=1.00:0.00 / mixed_ref=1 / me_range=32 / chroma_me=1 / trellis=2 / 8x8dct=1 / cqm=0 / deadzone=21,11 / fast_pskip=1 / chroma_qp_offset=-2 / threads=12 / lookahead_threads=2 / sliced_threads=0 / nr=0 / decimate=1 / interlaced=0 / bluray_compat=0 / constrained_intra=0 / bframes=0 / weightp=0 / keyint=75 / keyint_min=26 / scenecut=40 / intra_refresh=0 / rc_lookahead=50 / rc=2pass / mbtree=0 / bitrate=1800 / ratetol=1.0 / qcomp=0.20 / qpmin=10 / qpmax=51 / qpstep=4 / cplxblur=20.0 / qblur=0.5 / vbv_maxrate=2000 / vbv_bufsize=2000 / nal_hrd=none / filler=0 / ip_ratio=1.40 / aq=1:1.0
Default                                  : Да
Forced                                   : Нет
Цветовой диапазон                        : Limited
Основные цвета                           : BT.709
Характеристики трансфера                 : BT.709
Коэффициенты матрицы                     : BT.709
Аудио
Идентификатор                            : 2
Формат                                   : AC-3
Формат/Информация                        : Audio Coding 3
Расширение режима                        : CM (complete main)
Параметр Endianness формата              : Big
Идентификатор кодека                     : A_AC3
Продолжительность                        : 48 м.
Вид битрейта                             : Постоянный
Битрейт                                  : 192 Кбит/сек
Каналы                                   : 2 канала
Расположение каналов                     : Front: L R
Частота                                  : 44,1 КГц
Метод сжатия                             : С потерями
Размер потока                            : 67,2 Мбайт (10%)
Default                                  : Да
Forced                                   : Нет
-Скриншоты:


Смотреть онлайн

[trackeroc.ru].9799.torrent 
Торрент: Зарегистрирован   [ 2015-11-15 13:24 ]

Скачать торрент

88 KB

Статус: проверено
Скачан: 23 раз
Размер: 17.16 GB
 

Admin (15-ноя-15), Angel (16-ноя-15)
Похожие торренты
Форум Тема Автор Размер
Зарубежные сериалы Зов крови / Потерянная / Lost Girl (2010-2014) WEB-DLRip (Сезон 1-5, серии 1-77 из 77) NewStudio [MP4|640x360] BiOS 37.01 GB
Зарубежные сериалы Вне времени / Timeless (2016) WEB-DLRip (сезон 1, серии 1-9 из 13) BiOS 3.62 GB
Военные Лейтенант (2016) WEB-DLRip BiOS 1.37 GB
Зарубежные сериалы Ходячие мертвецы / The Walking Dead (2016) WEB-DLRip (сезон 7, серии 1-7 из 16) Admin 4.04 GB
Cимуляторы Euro Truck Simulator 2 (2013) [v1.26.1s + 44 DLC] [RUS][ENG][MULTi35] Repack by Xatab max+100600 1.7 GB

_________________
[Профиль] [ЛС]
Показать сообщения:    
Ответить на тему

Текущее время: Сегодня 09:45

Часовой пояс: GMT + 4



Вы не можете начинать темы
Вы не можете отвечать на сообщения
Вы не можете редактировать свои сообщения
Вы не можете удалять свои сообщения
Вы не можете голосовать в опросах
Вы не можете прикреплять файлы к сообщениям
Вы можете скачивать файлы