Король и Шут - Нашествие (2013) WEB-DLRip

Ответить на тему

Статистика раздачи [Обновить пиров]
Размер:  417 MB   |    Зарегистрирован:  1 год   |    Скачан:  3 раза

Полного источника не было: 20 дней

 
 
 
 
Автор Сообщение

BiOS ®

Стаж: 2 года 7 месяцев

Сообщений: 1738

Откуда: Raccoon City


Пост 13-Ноя-2015 02:38

[Цитировать]

Король и Шут - Нашествие - Год выпуска: 2013
Жанр: Концерт-Описание:
«Коро́ль и Шут» (аббревиатура КиШ) — российская хоррор-панк-группа. Выделяется своим необычным для классического панк-рока стилем. Песни группы представляют собой небольшие законченные истории, часто в фэнтезийном, мистическом, а также историческом ключе. Выступление группы "Король и Шут" на фестивале "Нашествие" 7 июля 2013 года.-Состав группы: Михаил Горшенёв (Горшок) — вокал, Александр Щиголев (Поручик) — барабаны, Яков Цвиркунов (Яша) — гитара, бэк-вокал, Сергей Захаров (Захар) — бас-гитара, Павел Сажинов — звукооператор, клавиши, Александр Леонтьев (Ренегат) — гитара, бэк-вокал, вокал.-Продолжительность: 00:45:00
Качество видео: WEB-DLRip-Видеокодек: VP8
Битрейт видео: 1140 kbps
Размер кадра: 854x480
Аудиокодек: Vorbis 2.0
Битрейт аудио: 128 kbps-

Треклист:

Треклист:
01. Исповедь вампира
02. Садовник
03. Дурак и молния
04. Он не знает, что такое жить
05. Паника в селе
06. Мёртвый анархист[cut]
07. Северный флот
08. Фокусник
09. Танец злобного гения
10. Проклятый старый дом
11. Лесник
12. Счастье
-

MI:

Код:
Полное имя                               : Z:\Концерты\Король и Шут - Нашествие 2013.mkv
Формат                                   : Matroska
Версия формата                           : Version 2
Размер файла                             : 417 Мбайт
Продолжительность                        : 45 м.
Режим общего битрейта                    : Переменный
Общий поток                              : 1294 Кбит/сек
Дата кодирования                         : UTC 2013-07-19 23:31:08
Программа кодирования                    : mkvmerge v5.5.0 ('Healer') built on Apr  6 2012 21:43:24
Библиотека кодирования                   : libebml v1.2.3 + libmatroska v1.3.0
Видео
Идентификатор                            : 1
Формат                                   : VP8
Идентификатор кодека                     : V_VP8
Продолжительность                        : 45 м.
Битрейт                                  : 1140 Кбит/сек
Ширина                                   : 854 пикселя
Высота                                   : 480 пикселей
Соотношение сторон                       : 16:9
Режим частоты кадров                     : Постоянный
Частота кадров                           : 30,000 кадров/сек
Метод сжатия                             : С потерями
Бит/(Пиксели*Кадры)                      : 0.093
Размер потока                            : 367 Мбайт (88%)
Default                                  : Да
Forced                                   : Нет
Аудио
Идентификатор                            : 2
Формат                                   : Vorbis
Параметр Floor формата                   : 1
Идентификатор кодека                     : A_VORBIS
Продолжительность                        : 45 м.
Вид битрейта                             : Переменный
Битрейт                                  : 128 Кбит/сек
Каналы                                   : 2 канала
Частота                                  : 44,1 КГц
Метод сжатия                             : С потерями
Задержка видео                           : 3 мс.
Размер потока                            : 41,2 Мбайт (10%)
Default                                  : Да
Forced                                   : Нет
Программа кодирования                    : Google
-Скриншоты:


[trackeroc.ru].9711.torrent 
 СЕРЕБРЯНАЯ РАЗДАЧА! СКАЧАННОЕ ЗАСЧИТЫВАЕТСЯ ТОЛЬКО НАПОЛОВИНУ! 
Торрент: Зарегистрирован   [ 2015-11-13 02:38 ]

Скачать торрент

17 KB

Статус: проверено
Скачан: 37 раз
Размер: 417 MB
 

Похожие торренты
Форум Тема Автор Размер
Зарубежные Король обезьян: Герой вернулся / Monkey King – Hero is back / Xi you ji zhi da sheng gui lai (2015) WEB-DLRip [Line] BiOS 1.46 GB
Драмы Девушка-король / The girl king [2015, WEBRip] Admin 1.45 GB
Сборники игр Антологии King Arthur - Anthology / Король Артур - Антология (2009-2012) [Ru/En] (1.0.7.0/1.0.6.0/1.1.0.8) Repack R.G. Catalyst Admin 11.06 GB

_________________
[Профиль] [ЛС]
Показать сообщения:    
Ответить на тему

Текущее время: Сегодня 22:22

Часовой пояс: GMT + 4



Вы не можете начинать темы
Вы не можете отвечать на сообщения
Вы не можете редактировать свои сообщения
Вы не можете удалять свои сообщения
Вы не можете голосовать в опросах
Вы не можете прикреплять файлы к сообщениям
Вы можете скачивать файлы