Корпорация монстров: Дилогия / Monsters, Inc.: Dilogy (2001-2013) HDRip [H.264] [MP4|960х528]

Ответить на тему

Статистика раздачи [Обновить пиров]
Размер:  3.44 GB   |    Зарегистрирован:  1 год 1 месяц   |    Скачан:  6 раз
Сидов:  1  [  0 KB/s  ]   Подробная статистика пиров
   
 
Автор Сообщение

BiOS ®

Стаж: 2 года 7 месяцев

Сообщений: 1736

Откуда: Raccoon City


Пост 25-Окт-2015 07:48

[Цитировать]

Корпорация монстров: Дилогия / Monsters, Inc.: Dilogy - Производство: США
Жанр: Анимация, Комедия, Семейный
Режиссер: Пит Доктер, Дэвид Силверман, Ли Анкрич, Дэн Скэнлон
Актеры: Джон Гудман, Билли Кристал, Мэри Гиббс, Стив Бушеми, Джеймс Кобурн, Дженнифер Тилли, Боб Петерсон, Джон Ратценбергер, Фрэнк Оз, Дэн Джерсон, Стив Сусскинд, Бонни Хант, Джефф Пиджон, Сэмюэл Лорд Блэк, Джек Энджел, Боб Берген, Роджер Бампасс, Джино Конфорти, Дженнифер Дарлинг, Патти Дьютч, Пит Доктер и другие
Описание:
Где-то в параллельном мире существует город Монстрополис, который населяют монстры. Электроэнергию для своего города монстры извлекают из криков человеческих детей. Поэтому главным предприятием Монстрополиса является электростанция и по совместительству фабрика страха — "Корпорация монстров"...
Продолжительность: 01:32:15; 01:44:17
Качество видео: HDRip
Перевод: Дублированный
Видео: AVC/H.264, 960х528, ~2345 Kbps
Аудио: AAC, 2 ch, 160 Kbps, русский
Параметры кодирования идентичны

Mediainfo

Код:
General
Complete name                            : Корпорация монстров. Дилогия (2001-2013)\Monster Inc. (2001).mp4
Format                                   : MPEG-4
Format profile                           : Base Media
Codec ID                                 : isom
File size                                : 1.62 GiB
Duration                                 : 1h 32mn
Overall bit rate mode                    : Variable
Overall bit rate                         : 2 510 Kbps
Movie name                               : Monsters Inc. (2001) [NoNaMe-Club. rip by alien.09]
ContentType                              : Short Film
Encoded date                             : UTC 2015-10-23 11:33:04
Tagged date                              : UTC 2015-10-23 11:34:34
Video
ID                                       : 1
Format                                   : AVC
Format/Info                              : Advanced Video Codec
Format profile                           : Main@L4.1
Format settings, CABAC                   : Yes
Format settings, ReFrames                : 3 frames
Codec ID                                 : avc1
Codec ID/Info                            : Advanced Video Coding
Duration                                 : 1h 32mn
Bit rate                                 : 2 345 Kbps
Maximum bit rate                         : 6 019 Kbps
Width                                    : 960 pixels
Height                                   : 528 pixels
Display aspect ratio                     : 1.85:1
Frame rate mode                          : Constant
Frame rate                               : 23.976 fps
Color space                              : YUV
Chroma subsampling                       : 4:2:0
Bit depth                                : 8 bits
Scan type                                : Progressive
Bits/(Pixel*Frame)                       : 0.193
Stream size                              : 1.51 GiB (93%)
Writing library                          : x264 core 116 r2019M 9cc407d
Encoding settings                        : cabac=1 / ref=3 / deblock=1:0:0 / analyse=0x1:0x131 / me=hex / subme=7 / psy=1 / psy_rd=1.00:0.20 / mixed_ref=1 / me_range=16 / chroma_me=1 / trellis=1 / 8x8dct=0 / cqm=0 / deadzone=21,11 / fast_pskip=1 / chroma_qp_offset=-3 / threads=12 / sliced_threads=0 / nr=0 / decimate=1 / interlaced=0 / bluray_compat=0 / constrained_intra=0 / bframes=3 / b_pyramid=0 / b_adapt=2 / b_bias=0 / direct=3 / weightb=1 / open_gop=0 / weightp=0 / keyint=230 / keyint_min=23 / scenecut=40 / intra_refresh=0 / rc_lookahead=40 / rc=2pass / mbtree=1 / bitrate=2345 / ratetol=1.0 / qcomp=0.60 / qpmin=10 / qpmax=51 / qpstep=4 / cplxblur=20.0 / qblur=0.5 / vbv_maxrate=5000 / vbv_bufsize=1835 / nal_hrd=none / ip_ratio=1.40 / aq=1:1.00
Language                                 : English
Encoded date                             : UTC 2015-10-23 11:33:04
Tagged date                              : UTC 2015-10-23 11:33:21
Audio
ID                                       : 2
Format                                   : AAC
Format/Info                              : Advanced Audio Codec
Format profile                           : LC
Codec ID                                 : 40
Duration                                 : 1h 32mn
Bit rate mode                            : Variable
Bit rate                                 : 160 Kbps
Maximum bit rate                         : 264 Kbps
Channel count                            : 2 channels
Channel positions                        : Front: L R
Sampling rate                            : 48.0 KHz
Compression mode                         : Lossy
Stream size                              : 106 MiB (6%)
Language                                 : Russian
Encoded date                             : UTC 2015-10-23 11:33:19
Tagged date                              : UTC 2015-10-23 11:33:21

Описание серий

Корпорация монстров / Monsters, Inc.:
Склизкий гад в сливном бачке, мохнатый зверь, похожий на чудовище из «Аленького цветочка», гигантские мокрицы под кроватью — все они существуют на самом деле. Все, что им нужно — пугать детей, потому что из детских криков они получают электричество.
Полнометражный мультфильм рассказывает о кризисах в мире монстров, их жизни. Но однажды вся мирная жизнь монстров оказывается под угрозой: в их мир попадает ребенок. А с детьми столько хлопот, что они могут довести даже монстров.
Университет монстров / Monsters University:
Майк и Салли — самые опытные пугатели в Монстрополисе, но так было далеко не всегда. Когда они встретились впервые, эти монстры терпеть друг друга не могли. «Университет Монстров» — история о том, как наши старые знакомые прошли путь от взаимной неприязни к крепкой дружбе.
Скриншоты:


Смотреть онлайн

[trackeroc.ru].9213.torrent 
 ЗОЛОТАЯ РАЗДАЧА! СКАЧАННОЕ НЕ ЗАСЧИТЫВАЕТСЯ! 
Торрент: Зарегистрирован   [ 2015-10-25 07:49 ]

Скачать торрент

18 KB

Статус: проверено
Скачан: 77 раз
Размер: 3.44 GB
 

Admin (25-окт-15)
Похожие торренты
Форум Тема Автор Размер
Зомби игры Survival Horror Dead Effect - Дилогия (2014-2016) [Ru/En] (1.4/1.0.3) Repack Mizantrop1337 BiOS 5.26 GB
Сборники игр Антологии Obscure Дилогия [Ru/En] (RePack) 2005-2007 | R.G. Механики BiOS 4.9 GB
Сборники игр Антологии Gas Guzzlers Dilogy | Дилогия (2012-2013) (Gamepires) (ENG+RUS) [RePack от R.G. Механики] Admin 8.35 GB
Фантастика Фэнтези Секретные материалы: Дилогия / The X Files: Dilogy (1998, 2008) HDRip (ОРТ) BiOS 1.45 GB

_________________
[Профиль] [ЛС]
Показать сообщения:    
Ответить на тему

Текущее время: Сегодня 09:46

Часовой пояс: GMT + 4



Вы не можете начинать темы
Вы не можете отвечать на сообщения
Вы не можете редактировать свои сообщения
Вы не можете удалять свои сообщения
Вы не можете голосовать в опросах
Вы не можете прикреплять файлы к сообщениям
Вы можете скачивать файлы