Кошмар на улице Вязов 4: Повелитель сна / A Nightmare on Elm Street 4: The Dream Master (1988) BDRip [H.264]

Ответить на тему

Статистика раздачи [Обновить пиров]
Размер:  4.03 GB   |    Зарегистрирован:  1 год 4 месяца   |    Скачан:  1 раз
DL-List: Нет

Полного источника не было: 6 месяцев 13 дней

 
 
 
 
Автор Сообщение

BiOS ®

Стаж: 2 года 7 месяцев

Сообщений: 1740

Откуда: Raccoon City


Пост 16-Июл-2015 11:34

[Цитировать]

Кошмар на улице Вязов 4: Повелитель сна / A Nightmare on Elm Street 4: The Dream Master (1988) BDRip [H.264]
« Чистое зло никогда не умрёт... »
- Производство: США | New Line Cinema, Smart Egg Pictures, Heron Communications
Жанр: Ужасы, Триллер
Режиссер: Ренни Харлин
Актеры: Лиза Уилкокс, Роберт Инглунд, Андрас Джонс, Дэнни Хэссел, Родни Истман, Тьюзди Найт, Кен Сэйгоз, Брук Банди, Николас Меле, Той Ньюкирк, Брук Тэйсс, Жаклин Маше, Хоуп Мари Карлтон, Ричард Гаррисон, Джон Бекман, Микки Ябланс, Пэт О’Нил
Описание: Маленькая собачка, писающая огненным пламенем на могилу Фредди во сне одного из героев, оживляет этого Повелителя снов. С радостью он начинает убивать выживших героев предыдущей части, в свое время оказавших ему достойное сопротивление. Казалось, он останется непобедимым и ужасным Кошмаром улицы Вязов. Но Фредди просчитался: за мгновение до своего ухода в мир иной, Кристен, последний отпрыск с улицы Вязов, успевает передать свою уникальную способность заманивать в свои сны других людей девушке Элис…
Возраст: 16+ Зрителям, достигшим 16 лет
Рейтинг MPAA: R Лицам до 17 лет обязательно присутствие взрослого
Продолжительность: 01:33:15
Качество видео: BDRip [H.264]
Перевод: Профессиональный многоголосый, профессиональный двухголосый, авторский, любительский
Вид субтитров: Вшитые отключаемые
Язык субтитров: Русский, английский
Видео: MPEG-4 AVC/H.264, 3500 Kbps, 1024 x 576
Аудио 1: Русский AC3 5.1, 384 Kbps, 48.0 KHz (Многоголосый закадровый) Позитив-Мультимедиа
Аудио 2: Русский AC3 5.1, 384 Kbps, 48.0 KHz (Многоголосый закадровый) Киномания
Аудио 3: Русский AC3 2.0, 192 Kbps, 48.0 KHz (Многоголосый закадровый) CP Digital
Аудио 4: Русский AC3 2.0, 192 Kbps, 48.0 KHz (Двухголосый закадровый) НТВ
Аудио 5: Русский AC3 2.0, 192 Kbps, 48.0 KHz (Одноголосый закадровый) Л. Володарский
Аудио 6: Русский AC3 5.1, 448 Kbps, 48.0 KHz (Одноголосый закадровый) А. Гаврилов
Аудио 7: Русский AC3 5.1, 448 Kbps, 48.0 KHz (Одноголосый закадровый) А. Матвеев
Аудио 8: Английский AC3 5.1, 448 Kbps, 48.0 KHz (Оригинал)

Blu-ray

MediaInfo

Общее
Полное имя : Кошмар на улице Вязов 4.mkv
Формат : Matroska
Версия формата : Version 1
Размер файла : 4,03 Гбайт
Продолжительность : 1 ч. 33 м.
Общий поток : 6192 Кбит/сек
Дата кодирования : UTC 2015-04-14 18:02:36
Программа кодирования : mkvmerge v2.4.1 ('Use Me') built on Dec 5 2008 18:30:05
Библиотека кодирования : libebml v0.7.7 + libmatroska v0.8.1
Видео
Идентификатор : 1
Формат : AVC
Формат/Информация : Advanced Video Codec
Профиль формата : High@L4.1
Параметр CABAC формата : Да
Параметр ReFrames формата : 10 кадров
Идентификатор кодека : V_MPEG4/ISO/AVC
Продолжительность : 1 ч. 33 м.
Битрейт : 3500 Кбит/сек
Ширина : 1024 пикселя
Высота : 576 пикселей
Соотношение сторон : 16:9
Режим частоты кадров : Постоянный
Частота кадров : 23,976 кадра/сек
Цветовое пространство : YUV
Субдискретизация насыщенности : 4:2:0
Битовая глубина : 8 бит
Тип развёртки : Прогрессивная
Бит/(Пиксели*Кадры) : 0.247
Размер потока : 2,20 Гбайт (55%)
Заголовок : Кошмар на улице Вязов 4: Повелитель сна (1988)
Библиотека кодирования : x264 core 146 r2538 121396c
Настройки программы : cabac=1 / ref=10 / deblock=1:-3:-3 / analyse=0x3:0x133 / me=umh / subme=10 / psy=1 / psy_rd=1.00:0.10 / mixed_ref=1 / me_range=48 / chroma_me=1 / trellis=2 / 8x8dct=1 / cqm=0 / deadzone=21,11 / fast_pskip=0 / chroma_qp_offset=-3 / threads=6 / lookahead_threads=1 / sliced_threads=0 / nr=0 / decimate=1 / interlaced=0 / bluray_compat=0 / constrained_intra=0 / bframes=5 / b_pyramid=2 / b_adapt=2 / b_bias=0 / direct=3 / weightb=1 / open_gop=0 / weightp=2 / keyint=240 / keyint_min=22 / scenecut=40 / intra_refresh=0 / rc_lookahead=40 / rc=2pass / mbtree=1 / bitrate=3500 / ratetol=1.0 / qcomp=0.60 / qpmin=10 / qpmax=51 / qpstep=4 / cplxblur=20.0 / qblur=0.5 / ip_ratio=1.40 / aq=1:1.00
Язык : English
Default : Да
Forced : Нет
Аудио #1
Идентификатор : 2
Формат : AC-3
Формат/Информация : Audio Coding 3
Расширение режима : CM (complete main)
Параметр Endianness формата : Big
Идентификатор кодека : A_AC3
Продолжительность : 1 ч. 33 м.
Вид битрейта : Постоянный
Битрейт : 384 Кбит/сек
Каналы : 6 каналов
Расположение каналов : Front: L C R, Side: L R, LFE
Частота : 48,0 КГц
Битовая глубина : 16 бит
Метод сжатия : С потерями
Размер потока : 256 Мбайт (6%)
Заголовок : AC3 (Многоголосый) Позитив-Мультимедиа
Язык : Russian
Default : Да
Forced : Нет
Аудио #2
Идентификатор : 3
Формат : AC-3
Формат/Информация : Audio Coding 3
Расширение режима : CM (complete main)
Параметр Endianness формата : Big
Идентификатор кодека : A_AC3
Продолжительность : 1 ч. 33 м.
Вид битрейта : Постоянный
Битрейт : 384 Кбит/сек
Каналы : 6 каналов
Расположение каналов : Front: L C R, Side: L R, LFE
Частота : 48,0 КГц
Битовая глубина : 16 бит
Метод сжатия : С потерями
Размер потока : 256 Мбайт (6%)
Заголовок : AC3 (Многоголосый) Киномания
Язык : Russian
Default : Нет
Forced : Нет
Аудио #3
Идентификатор : 4
Формат : AC-3
Формат/Информация : Audio Coding 3
Расширение режима : CM (complete main)
Параметр Endianness формата : Big
Идентификатор кодека : A_AC3
Продолжительность : 1 ч. 33 м.
Вид битрейта : Постоянный
Битрейт : 192 Кбит/сек
Каналы : 2 канала
Расположение каналов : Front: L R
Частота : 48,0 КГц
Битовая глубина : 16 бит
Метод сжатия : С потерями
Размер потока : 128 Мбайт (3%)
Заголовок : AC3 (Многоголосый) CP Digital
Язык : Russian
Default : Нет
Forced : Нет
Аудио #4
Идентификатор : 5
Формат : AC-3
Формат/Информация : Audio Coding 3
Расширение режима : CM (complete main)
Параметр Endianness формата : Big
Идентификатор кодека : A_AC3
Продолжительность : 1 ч. 33 м.
Вид битрейта : Постоянный
Битрейт : 192 Кбит/сек
Каналы : 2 канала
Расположение каналов : Front: L R
Частота : 48,0 КГц
Битовая глубина : 16 бит
Метод сжатия : С потерями
Размер потока : 128 Мбайт (3%)
Заголовок : AC3 (Двухголосый) НТВ
Язык : Russian
Default : Нет
Forced : Нет
Аудио #5
Идентификатор : 6
Формат : AC-3
Формат/Информация : Audio Coding 3
Расширение режима : CM (complete main)
Параметр Endianness формата : Big
Идентификатор кодека : A_AC3
Продолжительность : 1 ч. 33 м.
Вид битрейта : Постоянный
Битрейт : 192 Кбит/сек
Каналы : 2 канала
Расположение каналов : Front: L R
Частота : 48,0 КГц
Битовая глубина : 16 бит
Метод сжатия : С потерями
Размер потока : 128 Мбайт (3%)
Заголовок : AC3 (Одноголосый) Л. Володарский
Язык : Russian
Default : Нет
Forced : Нет
Аудио #6
Идентификатор : 7
Формат : AC-3
Формат/Информация : Audio Coding 3
Расширение режима : CM (complete main)
Параметр Endianness формата : Big
Идентификатор кодека : A_AC3
Продолжительность : 1 ч. 33 м.
Вид битрейта : Постоянный
Битрейт : 448 Кбит/сек
Каналы : 6 каналов
Расположение каналов : Front: L C R, Side: L R, LFE
Частота : 48,0 КГц
Битовая глубина : 16 бит
Метод сжатия : С потерями
Размер потока : 299 Мбайт (7%)
Заголовок : AC3 (Одноголосый) А. Гаврилов
Язык : Russian
Default : Нет
Forced : Нет
Аудио #7
Идентификатор : 8
Формат : AC-3
Формат/Информация : Audio Coding 3
Расширение режима : CM (complete main)
Параметр Endianness формата : Big
Идентификатор кодека : A_AC3
Продолжительность : 1 ч. 33 м.
Вид битрейта : Постоянный
Битрейт : 448 Кбит/сек
Каналы : 6 каналов
Расположение каналов : Front: L C R, Side: L R, LFE
Частота : 48,0 КГц
Битовая глубина : 16 бит
Метод сжатия : С потерями
Размер потока : 299 Мбайт (7%)
Заголовок : AC3 (Одноголосый) А. Матвеев
Язык : Russian
Default : Нет
Forced : Нет
Аудио #8
Идентификатор : 9
Формат : AC-3
Формат/Информация : Audio Coding 3
Расширение режима : CM (complete main)
Параметр Endianness формата : Big
Идентификатор кодека : A_AC3
Продолжительность : 1 ч. 33 м.
Вид битрейта : Постоянный
Битрейт : 448 Кбит/сек
Каналы : 6 каналов
Расположение каналов : Front: L C R, Side: L R, LFE
Частота : 48,0 КГц
Битовая глубина : 16 бит
Метод сжатия : С потерями
Размер потока : 299 Мбайт (7%)
Заголовок : AC3 (Оригинал)
Язык : English
Default : Нет
Forced : Нет
Текст #1
Идентификатор : 10
Формат : UTF-8
Идентификатор кодека : S_TEXT/UTF8
Идентификатор кодека/Информация : UTF-8 Plain Text
Заголовок : Русские
Язык : Russian
Default : Нет
Forced : Нет
Текст #2
Идентификатор : 11
Формат : UTF-8
Идентификатор кодека : S_TEXT/UTF8
Идентификатор кодека/Информация : UTF-8 Plain Text
Заголовок : Английские
Язык : English
Default : Нет
Forced : Нет
Скриншоты:


Смотреть онлайн

[trackeroc.ru].7015.torrent 
Торрент: Зарегистрирован   [ 2015-07-16 11:34 ]

Скачать торрент

11 KB

Статус: проверено
Скачан: 14 раз
Размер: 4.03 GB
 

Admin (16-июл-15)
Похожие торренты
Форум Тема Автор Размер
Ужасы мистика триллеры Кошмар на улице Вязов / A Nightmare on Elm Street (2010) BDRip [720p] BiOS 5.8 GB
Ужасы мистика триллеры Кошмар на улице Вязов 7: Новый Кошмар / New Nightmare (1994) BDRip [H.264] BiOS 4.85 GB
Ужасы мистика триллеры Кошмар на улице Вязов 6: Фредди мертв / Freddy's Dead: The Final Nightmare (1991) BDRip [H.264] BiOS 3.86 GB
Ужасы мистика триллеры Кошмар на улице Вязов 5: Дитя сна / A Nightmare on Elm Street: The Dream Child (1989) BDRip [H.264] BiOS 4 GB

_________________
[Профиль] [ЛС]
Показать сообщения:    
Ответить на тему

Текущее время: Сегодня 09:55

Часовой пояс: GMT + 4



Вы не можете начинать темы
Вы не можете отвечать на сообщения
Вы не можете редактировать свои сообщения
Вы не можете удалять свои сообщения
Вы не можете голосовать в опросах
Вы не можете прикреплять файлы к сообщениям
Вы можете скачивать файлы