Кошмар на улице Вязов 6: Фредди мертв / Freddy's Dead: The Final Nightmare (1991) BDRip [H.264]

Ответить на тему

Статистика раздачи [Обновить пиров]
Размер:  3.86 GB   |    Зарегистрирован:  1 год 7 месяцев   |    Скачан:  4 раза

Полного источника не было: 29 дней

 
 
 
 
Автор Сообщение

BiOS ®

Стаж: 2 года 10 месяцев

Сообщений: 1866

Откуда: Raccoon City


Пост 16-Июл-2015 11:37

[Цитировать]

Кошмар на улице Вязов 6: Фредди мертв / Freddy's Dead: The Final Nightmare (1991) BDRip [H.264]
« Если вы думаете, что знаете о снах всё, вы ошибаетесь »
- Производство: США | New Line Cinema, Nicolas Entertainment
Жанр: Ужасы, Триллер
Режиссер: Рейчел Тэлалей
Актеры: Лиза Зейн, Роберт Инглунд, Шон Гринблатт, Лесли Дин, Рики Дин Логан, Брекин Мейер, Яфет Котто, Том Арнольд, Элинор Донахью, Джонни Депп, Кассандра Рэйчел Фрил, Дэвид Дунард, Мэрлин Рокафеллоу, Вирджиния Питерс, Стелла Холл
Описание: Здесь выясняются причины появления духа-изверга Фредди Крюгера, с самого начала мстившего жителям своего родного городка. С детства заброшенный всеми, Фредди вырос очень озлобленным. Его терзает мания убийства, и он убивает детей, заманивая их в старую котельную. Когда суд по формальным причинам выносит маньяку оправдательный приговор, разъяренные родители жертв линчуют его.
Возраст: 16+ Зрителям, достигшим 16 лет
Рейтинг MPAA: R Лицам до 17 лет обязательно присутствие взрослого
Продолжительность: 01:29:12
Качество видео: BDRip [H.264]
Перевод: Профессиональный многоголосый, профессиональный двухголосый, авторский, любительский
Вид субтитров: Вшитые отключаемые
Язык субтитров: Русский, английский
Видео: MPEG-4 AVC/H.264, 3500 Kbps, 1024 x 576
Аудио 1: Русский AC3 5.1, 384 Kbps, 48.0 KHz (Многоголосый закадровый) Позитив-Мультимедиа
Аудио 2: Русский AC3 5.1, 384 Kbps, 48.0 KHz (Многоголосый закадровый) Киномания
Аудио 3: Русский AC3 2.0, 192 Kbps, 48.0 KHz (Многоголосый закадровый) CP Digital
Аудио 4: Русский AC3 2.0, 192 Kbps, 48.0 KHz (Двухголосый закадровый) НТВ
Аудио 5: Русский AC3 2.0, 192 Kbps, 48.0 KHz (Одноголосый закадровый) В. Горчаков
Аудио 6: Русский AC3 5.1, 448 Kbps, 48.0 KHz (Одноголосый закадровый) А. Гаврилов
Аудио 7: Русский AC3 5.1, 448 Kbps, 48.0 KHz (Одноголосый закадровый) А. Матвеев
Аудио 8: Английский AC3 5.1, 448 Kbps, 48.0 KHz (Оригинал)

Blu-ray

MediaInfo

Общее
Полное имя : Кошмар на улице Вязов 6.mkv
Формат : Matroska
Версия формата : Version 1
Размер файла : 3,86 Гбайт
Продолжительность : 1 ч. 29 м.
Общий поток : 6191 Кбит/сек
Дата кодирования : UTC 2015-04-13 09:21:56
Программа кодирования : mkvmerge v2.4.1 ('Use Me') built on Dec 5 2008 18:30:05
Библиотека кодирования : libebml v0.7.7 + libmatroska v0.8.1
Видео
Идентификатор : 1
Формат : AVC
Формат/Информация : Advanced Video Codec
Профиль формата : High@L4.1
Параметр CABAC формата : Да
Параметр ReFrames формата : 10 кадров
Идентификатор кодека : V_MPEG4/ISO/AVC
Продолжительность : 1 ч. 29 м.
Битрейт : 3500 Кбит/сек
Ширина : 1024 пикселя
Высота : 576 пикселей
Соотношение сторон : 16:9
Режим частоты кадров : Постоянный
Частота кадров : 23,976 кадра/сек
Цветовое пространство : YUV
Субдискретизация насыщенности : 4:2:0
Битовая глубина : 8 бит
Тип развёртки : Прогрессивная
Бит/(Пиксели*Кадры) : 0.247
Размер потока : 2,11 Гбайт (55%)
Заголовок : Кошмар на улице Вязов 6: Фредди мертв (1991)
Библиотека кодирования : x264 core 146 r2538 121396c
Настройки программы : cabac=1 / ref=10 / deblock=1:-3:-3 / analyse=0x3:0x133 / me=umh / subme=10 / psy=1 / psy_rd=1.00:0.10 / mixed_ref=1 / me_range=48 / chroma_me=1 / trellis=2 / 8x8dct=1 / cqm=0 / deadzone=21,11 / fast_pskip=0 / chroma_qp_offset=-3 / threads=6 / lookahead_threads=1 / sliced_threads=0 / nr=0 / decimate=1 / interlaced=0 / bluray_compat=0 / constrained_intra=0 / bframes=5 / b_pyramid=2 / b_adapt=2 / b_bias=0 / direct=3 / weightb=1 / open_gop=0 / weightp=2 / keyint=240 / keyint_min=22 / scenecut=40 / intra_refresh=0 / rc_lookahead=40 / rc=2pass / mbtree=1 / bitrate=3500 / ratetol=1.0 / qcomp=0.60 / qpmin=10 / qpmax=51 / qpstep=4 / cplxblur=20.0 / qblur=0.5 / ip_ratio=1.40 / aq=1:1.00
Язык : English
Default : Да
Forced : Нет
Аудио #1
Идентификатор : 2
Формат : AC-3
Формат/Информация : Audio Coding 3
Расширение режима : CM (complete main)
Параметр Endianness формата : Big
Идентификатор кодека : A_AC3
Продолжительность : 1 ч. 29 м.
Вид битрейта : Постоянный
Битрейт : 384 Кбит/сек
Каналы : 6 каналов
Расположение каналов : Front: L C R, Side: L R, LFE
Частота : 48,0 КГц
Битовая глубина : 16 бит
Метод сжатия : С потерями
Размер потока : 245 Мбайт (6%)
Заголовок : AC3 (Многоголосый) Позитив-Мультимедиа
Язык : Russian
Default : Да
Forced : Нет
Аудио #2
Идентификатор : 3
Формат : AC-3
Формат/Информация : Audio Coding 3
Расширение режима : CM (complete main)
Параметр Endianness формата : Big
Идентификатор кодека : A_AC3
Продолжительность : 1 ч. 29 м.
Вид битрейта : Постоянный
Битрейт : 384 Кбит/сек
Каналы : 6 каналов
Расположение каналов : Front: L C R, Side: L R, LFE
Частота : 48,0 КГц
Битовая глубина : 16 бит
Метод сжатия : С потерями
Размер потока : 245 Мбайт (6%)
Заголовок : AC3 (Многоголосый) Киномания
Язык : Russian
Default : Нет
Forced : Нет
Аудио #3
Идентификатор : 4
Формат : AC-3
Формат/Информация : Audio Coding 3
Расширение режима : CM (complete main)
Параметр Endianness формата : Big
Идентификатор кодека : A_AC3
Продолжительность : 1 ч. 29 м.
Вид битрейта : Постоянный
Битрейт : 192 Кбит/сек
Каналы : 2 канала
Расположение каналов : Front: L R
Частота : 48,0 КГц
Битовая глубина : 16 бит
Метод сжатия : С потерями
Размер потока : 123 Мбайт (3%)
Заголовок : AC3 (Многоголосый) CP Digital
Язык : Russian
Default : Нет
Forced : Нет
Аудио #4
Идентификатор : 5
Формат : AC-3
Формат/Информация : Audio Coding 3
Расширение режима : CM (complete main)
Параметр Endianness формата : Big
Идентификатор кодека : A_AC3
Продолжительность : 1 ч. 29 м.
Вид битрейта : Постоянный
Битрейт : 192 Кбит/сек
Каналы : 2 канала
Расположение каналов : Front: L R
Частота : 48,0 КГц
Битовая глубина : 16 бит
Метод сжатия : С потерями
Размер потока : 123 Мбайт (3%)
Заголовок : AC3 (Двухголосый) НТВ
Язык : Russian
Default : Нет
Forced : Нет
Аудио #5
Идентификатор : 6
Формат : AC-3
Формат/Информация : Audio Coding 3
Расширение режима : CM (complete main)
Параметр Endianness формата : Big
Идентификатор кодека : A_AC3
Продолжительность : 1 ч. 29 м.
Вид битрейта : Постоянный
Битрейт : 192 Кбит/сек
Каналы : 2 канала
Расположение каналов : Front: L R
Частота : 48,0 КГц
Битовая глубина : 16 бит
Метод сжатия : С потерями
Размер потока : 123 Мбайт (3%)
Заголовок : AC3 (Одноголосый) В. Горчаков
Язык : Russian
Default : Нет
Forced : Нет
Аудио #6
Идентификатор : 7
Формат : AC-3
Формат/Информация : Audio Coding 3
Расширение режима : CM (complete main)
Параметр Endianness формата : Big
Идентификатор кодека : A_AC3
Продолжительность : 1 ч. 29 м.
Вид битрейта : Постоянный
Битрейт : 448 Кбит/сек
Каналы : 6 каналов
Расположение каналов : Front: L C R, Side: L R, LFE
Частота : 48,0 КГц
Битовая глубина : 16 бит
Метод сжатия : С потерями
Размер потока : 286 Мбайт (7%)
Заголовок : AC3 (Одноголосый) А. Гаврилов
Язык : Russian
Default : Нет
Forced : Нет
Аудио #7
Идентификатор : 8
Формат : AC-3
Формат/Информация : Audio Coding 3
Расширение режима : CM (complete main)
Параметр Endianness формата : Big
Идентификатор кодека : A_AC3
Продолжительность : 1 ч. 29 м.
Вид битрейта : Постоянный
Битрейт : 448 Кбит/сек
Каналы : 6 каналов
Расположение каналов : Front: L C R, Side: L R, LFE
Частота : 48,0 КГц
Битовая глубина : 16 бит
Метод сжатия : С потерями
Размер потока : 286 Мбайт (7%)
Заголовок : AC3 (Одноголосый) А. Матвеев
Язык : Russian
Default : Нет
Forced : Нет
Аудио #8
Идентификатор : 9
Формат : AC-3
Формат/Информация : Audio Coding 3
Расширение режима : CM (complete main)
Параметр Endianness формата : Big
Идентификатор кодека : A_AC3
Продолжительность : 1 ч. 29 м.
Вид битрейта : Постоянный
Битрейт : 448 Кбит/сек
Каналы : 6 каналов
Расположение каналов : Front: L C R, Side: L R, LFE
Частота : 48,0 КГц
Битовая глубина : 16 бит
Метод сжатия : С потерями
Размер потока : 286 Мбайт (7%)
Заголовок : AC3 (Оригинал)
Язык : English
Default : Нет
Forced : Нет
Текст #1
Идентификатор : 10
Формат : UTF-8
Идентификатор кодека : S_TEXT/UTF8
Идентификатор кодека/Информация : UTF-8 Plain Text
Заголовок : Русские
Язык : Russian
Default : Нет
Forced : Нет
Текст #2
Идентификатор : 11
Формат : UTF-8
Идентификатор кодека : S_TEXT/UTF8
Идентификатор кодека/Информация : UTF-8 Plain Text
Заголовок : Английские
Язык : English
Default : Нет
Forced : Нет
Скриншоты:


Смотреть онлайн


[trackeroc.ru].7018.torrent 
Торрент: Зарегистрирован   [ 2015-07-16 11:37 ]

Скачать торрент

20 KB

Статус: проверено
Скачан: 25 раз
Размер: 3.86 GB
 

Admin (16-июл-15)
Похожие торренты
Форум Тема Автор Размер
Ужасы мистика триллеры Кошмар на улице Вязов / A Nightmare on Elm Street (2010) BDRip [720p] BiOS 5.8 GB
Ужасы мистика триллеры Кошмар на улице Вязов 7: Новый Кошмар / New Nightmare (1994) BDRip [H.264] BiOS 4.85 GB
Ужасы мистика триллеры Кошмар на улице Вязов 5: Дитя сна / A Nightmare on Elm Street: The Dream Child (1989) BDRip [H.264] BiOS 4 GB
Ужасы мистика триллеры Кошмар на улице Вязов 4: Повелитель сна / A Nightmare on Elm Street 4: The Dream Master (1988) BDRip [H.264] BiOS 4.03 GB

_________________
[Профиль] [ЛС]
Показать сообщения:    
Ответить на тему

Текущее время: Сегодня 10:45

Часовой пояс: GMT + 4



Вы не можете начинать темы
Вы не можете отвечать на сообщения
Вы не можете редактировать свои сообщения
Вы не можете удалять свои сообщения
Вы не можете голосовать в опросах
Вы не можете прикреплять файлы к сообщениям
Вы можете скачивать файлы