Ковчег Марка (2015) SATRip [H.264] (серии 1-4 из 4)

Ответить на тему

Статистика раздачи [Обновить пиров]
Размер:  2.15 GB   |    Зарегистрирован:  1 год 1 месяц   |    Скачан:  4 раза
Сидов:  79  [  0 KB/s  ]   Личеров:  53  [  0 KB/s  ]   Подробная статистика пиров
   
 
Автор Сообщение

BiOS ®

Стаж: 2 года 7 месяцев

Сообщений: 1736

Откуда: Raccoon City


Пост 18-Окт-2015 08:21

[Цитировать]

Ковчег Марка - Производство: Россия / ООО "Свэлл Фильм"
Жанр: детектив, драма
Режиссер: Игорь Нурисламов
Актеры: Анастасия Сапожникова, Николай Козак, Андрей Арзяев, Александр Волков, Мария Иващенко, Иван Коряковский, Роман Индык, Наталья Рычкова, Станислав Беляев, Алексей Ильин, Денис Синявский, Ирина Марцинкевич и др.
Описание:
Буран застигает в горах Приполярного Урала группу туристов, познакомившихся в интернете. Опытная походница Алла понимает - они на краю гибели. У них раненый, и до населённого пункта не дойти. Замёрзших, отчаявшихся, их находит лыжник Марк и провожает на кордон. Но радость спасения сменяется тревожными вопросами: почему кордона нет ни на одной карте? Откуда в глухом таёжном лесу укатанная лыжня? Кто такие хозяева кордона - Марк и его друг Павел? Когда происходит загадочное убийство, Алла принимается распутывать клубок тайн. Становится очевидным: все туристы лгут. И кто-то из них оказался на странном кордоне вовсе не случайно…
Дата премьеры в России: 17 октября 2015 (ТВЦ)
Продолжительность: ~ 00:43:00 серия
Качество видео: SATRip
Видео: AVC/H.264, 720x400 (16:9), ~1569 Кбит/сек
Аудио: AC3, 2 канала, 192 Кбит/сек, CBR

Mediainfo:

Код:
Общее
Уникальный идентификатор : 186038119408587965443583913617322258832 (0x8BF5A37484311994B6AEA10BE22DB190)
Полное имя : B:\Ковчег Марка\01 серия.mkv
Формат : Matroska
Версия формата : Version 2
Размер файла : 550 Мбайт
Продолжительность : 43 м.
Общий поток : 1763 Кбит/сек
Дата кодирования : UTC 2015-10-17 11:30:27
Программа кодирования : mkvmerge v7.8.0 ('River Man') 32bit built on Apr 3 2015 12:11:22
Библиотека кодирования : libebml v1.3.1 + libmatroska v1.4.2
Видео
Идентификатор : 1
Формат : AVC
Формат/Информация : Advanced Video Codec
Профиль формата : High@L4.1
Параметр CABAC формата : Да
Параметр ReFrames формата : 9 кадров
Идентификатор кодека : V_MPEG4/ISO/AVC
Продолжительность : 43 м.
Битрейт : 1569 Кбит/сек
Ширина : 720 пикселей
Высота : 400 пикселей
Соотношение сторон : 16:9
Режим частоты кадров : Постоянный
Частота кадров : 25,000 кадров/сек
Цветовое пространство : YUV
Субдискретизация насыщенности : 4:2:0
Битовая глубина : 8 бит
Тип развёртки : Прогрессивная
Бит/(Пиксели*Кадры) : 0.218
Размер потока : 480 Мбайт (87%)
Библиотека кодирования : x264 core 146 r2538 121396c
Настройки программы : cabac=1 / ref=9 / deblock=1:-1:-1 / analyse=0x3:0x133 / me=umh / subme=9 / psy=1 / psy_rd=1.00:0.00 / mixed_ref=0 / me_range=32 / chroma_me=1 / trellis=2 / 8x8dct=1 / cqm=0 / deadzone=21,11 / fast_pskip=1 / chroma_qp_offset=-2 / threads=2 / lookahead_threads=4 / sliced_threads=0 / nr=0 / decimate=1 / interlaced=0 / bluray_compat=0 / constrained_intra=0 / bframes=9 / b_pyramid=2 / b_adapt=1 / b_bias=0 / direct=3 / weightb=1 / open_gop=0 / weightp=2 / keyint=240 / keyint_min=24 / scenecut=40 / intra_refresh=0 / rc_lookahead=40 / rc=2pass / mbtree=1 / bitrate=1569 / ratetol=1.0 / qcomp=0.60 / qpmin=0 / qpmax=69 / qpstep=4 / cplxblur=20.0 / qblur=0.5 / ip_ratio=1.40 / aq=1:1.20
Default : Да
Forced : Нет
Цветовой диапазон : Limited
Основные цвета : BT.601 PAL
Характеристики трансфера : BT.470 System B, BT.470 System G
Коэффициенты матрицы : BT.601
Аудио
Идентификатор : 2
Формат : AC-3
Формат/Информация : Audio Coding 3
Расширение режима : CM (complete main)
Параметр Endianness формата : Big
Идентификатор кодека : A_AC3
Продолжительность : 43 м.
Вид битрейта : Постоянный
Битрейт : 192 Кбит/сек
Каналы : 2 канала
Расположение каналов : Front: L R
Частота : 48,0 КГц
Метод сжатия : С потерями
Размер потока : 60,0 Мбайт (11%)
Default : Да
Forced : Нет
Скриншоты:


Смотреть онлайн

[trackeroc.ru].8881.torrent 
Торрент: Зарегистрирован   [ 2015-10-18 08:21 ]

Скачать торрент

12 KB

Статус: проверено
Скачан: 18 раз
Размер: 2.15 GB
 

Admin (18-окт-15)
Похожие торренты
Форум Тема Автор Размер
Strategy Стратегии Unending Galaxy. Deluxe Edition (v1.3.0.3) [ENG] (2015) Admin 203 MB
Arcade , Аркады , Платформеры Magicmaker 1.0.13 (2015) (ENG) GOG Admin 215 MB
Инди Sandbox (Linux+Mac) Big Pharma v1.07.04 (2015) (RUS|ENG) GOG _DD_ 626 MB
Инди игры Big Pharma v1.07.04 (2015) (RUS|ENG) GOG Admin 256 MB
Инди Sandbox (Linux+Mac) Kerbal Space Program 1.2.2.1622 (2015) [x86, amd64] GOG _DD_ 1.46 GB

_________________
[Профиль] [ЛС]
Показать сообщения:    
Ответить на тему

Текущее время: Сегодня 09:46

Часовой пояс: GMT + 4



Вы не можете начинать темы
Вы не можете отвечать на сообщения
Вы не можете редактировать свои сообщения
Вы не можете удалять свои сообщения
Вы не можете голосовать в опросах
Вы не можете прикреплять файлы к сообщениям
Вы можете скачивать файлы