Крампус: Расплата / Krampus: The Reckoning (2015) WEB-DLRip

Ответить на тему

Статистика раздачи [Обновить пиров]
Размер:  1.46 GB   |    Зарегистрирован:  9 месяцев 3 дня   |    Скачан:  1 раз

Полного источника не было: 6 месяцев 27 дней

 
 
 
 
Автор Сообщение

BiOS ®

Стаж: 2 года 7 месяцев

Сообщений: 1730

Откуда: Raccoon City


Пост 02-Мар-2016 21:35

[Цитировать]

Крампус: Расплата / Krampus: The Reckoning- Производство: США
Жанр: Ужасы, Триллер
Дата мировой премьеры: 3 ноября 2015
Режиссер: Роберт Конуэй
Продюсер: Джастин Андерсон, Оуэн Конуэй, Роберт Конуэй
Актеры: Моника Энгессер, Амелия Хаберман, Джеймс Рэй, Кевин Ти, Sean G P Anderson, Джеффри Ламар, Оуэн Конуэй, Кэрри Рэпп, Натанель Бёрнс, Шон Савэдра
Описание:
Зои — странная девочка. Она дружит с мнимым другом Крампусом. Антиподом св.Николаса. Крампус придет в рождественскую ночь за нехорошими людьми, чтобы утащить их души в глубины ада...
Продолжительность: 01:28:49
Качество видео: WEB-DLRip
Перевод: Двуголосый закадровый, любительский (RG.paravozik / МЕГАПЫХАРЬ)
Видео: XviD, 720x304, ~1888 kb/s
Аудио 1 : AC3, 2 ch, 192 Кбит/сек / Русский, CBR
Аудио 2 : AC3, 2 ch, 256 Кбит/сек / Английский, CBR

Mediainfo:

Код:
Общее
Полное имя                               : D:\Dowloands\Видео\Krampus.The.Reckoning.2015.L2.WEB-DLRip.avi
Формат                                   : AVI
Формат/Информация                        : Audio Video Interleave
Размер файла                             : 1,46 Гбайт
Продолжительность                        : 1 ч. 28 м.
Общий поток                              : 2350 Кбит/сек
Программа кодирования                    : VirtualDubMod 1.5.10.3 | www.virtualdub-fr.org || (build 2550/release)
Библиотека кодирования                   : VirtualDubMod build 2550/release
Видео
Идентификатор                            : 0
Формат                                   : MPEG-4 Visual
Профиль формата                          : Advanced Simple@L5
Параметр BVOP формата                    : 1
Параметр QPel формата                    : Нет
Параметр GMC формата                     : Без точки перехода
Параметр матрицы формата                 : Выборочная
Идентификатор кодека                     : XVID
Идентификатор кодека/Подсказка           : XviD
Продолжительность                        : 1 ч. 28 м.
Битрейт                                  : 1888 Кбит/сек
Ширина                                   : 720 пикселей
Высота                                   : 304 пикселя
Соотношение сторон                       : 2,35:1
Частота кадров                           : 23,976 кадра/сек
Цветовое пространство                    : YUV
Субдискретизация насыщенности            : 4:2:0
Битовая глубина                          : 8 бит
Тип развёртки                            : Прогрессивная
Метод сжатия                             : С потерями
Бит/(Пиксели*Кадры)                      : 0.360
Размер потока                            : 1,17 Гбайт (80%)
Библиотека кодирования                   : XviD 73
Аудио #1
Идентификатор                            : 1
Формат                                   : AC-3
Формат/Информация                        : Audio Coding 3
Расширение режима                        : CM (complete main)
Параметр Endianness формата              : Big
Идентификатор кодека                     : 2000
Продолжительность                        : 1 ч. 28 м.
Вид битрейта                             : Постоянный
Битрейт                                  : 192 Кбит/сек
Каналы                                   : 2 канала
Расположение каналов                     : Front: L R
Частота                                  : 48,0 КГц
Метод сжатия                             : С потерями
Размер потока                            : 122 Мбайт (8%)
Выравнивание                             : Разделение по промежуткам
Продолжительность промежутка             : 42  мс. (1,00 видеокадр)
Время предзагрузки промежутка            : 500  мс.
Аудио #2
Идентификатор                            : 2
Формат                                   : AC-3
Формат/Информация                        : Audio Coding 3
Расширение режима                        : CM (complete main)
Параметр Endianness формата              : Big
Идентификатор кодека                     : 2000
Продолжительность                        : 1 ч. 28 м.
Вид битрейта                             : Постоянный
Битрейт                                  : 256 Кбит/сек
Каналы                                   : 2 канала
Расположение каналов                     : Front: L R
Частота                                  : 48,0 КГц
Метод сжатия                             : С потерями
Размер потока                            : 163 Мбайт (11%)
Выравнивание                             : Разделение по промежуткам
Продолжительность промежутка             : 42  мс. (1,00 видеокадр)
Время предзагрузки промежутка            : 500  мс.
-Скриншоты:


Смотреть онлайн

[trackerock.ru].11911.torrent 
Торрент: Зарегистрирован   [ 2016-03-02 21:35 ]

Скачать торрент

15 KB

Статус: проверено
Скачан: 13 раз
Размер: 1.46 GB
 

Admin (02-мар-16)

_________________
[Профиль] [ЛС]
Показать сообщения:    
Ответить на тему

Текущее время: Сегодня 09:38

Часовой пояс: GMT + 4



Вы не можете начинать темы
Вы не можете отвечать на сообщения
Вы не можете редактировать свои сообщения
Вы не можете удалять свои сообщения
Вы не можете голосовать в опросах
Вы не можете прикреплять файлы к сообщениям
Вы можете скачивать файлы