Круг / Cirkeln (2015) BDRip [H.264/1080p] [VO]

Ответить на тему

Статистика раздачи [Обновить пиров]
Размер:  10.03 GB   |    Зарегистрирован:  1 год 4 месяца   |    Скачан:  1 раз

Полного источника не было: 1 год 1 месяц

 
 
 
 
Автор Сообщение

BiOS ®

Стаж: 2 года 10 месяцев

Сообщений: 1865

Откуда: Raccoon City


Пост 18-Окт-2015 08:58

[Цитировать]

Круг / Cirkeln - Производство: Швеция, RMV Film
Жанр: Фэнтези, Триллер, Драма, Детектив
Режиссер: Леван Акин
Актеры: Йозефин Асплунд, Хелена Энгстрём, Миранда Фридман, Ирма фон Платен, Ханна Асп, Леона Аксельсен, Рут Вега Фернандез, Себастьян Хиорт аф Орнас, Джоанна Гранстром
Описание:
В маленьком шведском городке ученики местной школы готовятся к началу нового учебного года, ссорятся с друзьями, выясняют отношения с родителями… Жизнь идет своим чередом, пока однажды в школьном туалете не обнаруживают тело подростка и над городом не встает кроваво-красная луна. Оказывается, город стал местом борьбы добра и зла и теперь только от немногих избранных зависит исход мировой битвы…
Дата мировой премьеры: 10.02.2015
Продолжительность: 02:23:35
Качество видео: BDRip (profile LQ)
Перевод: Одноголосый закадровый, любительский
Озвучка / Автор перевода: Vaxywod
Язык субтитров: Русский
Вид субтитров: Вшитые отключаемые
Видео: AVC/H.264, 1920x808, ~8 300 Kbps
Аудио: AC3, 2 ch, 192 kbs | Russian
Аудио 2: DTS, 6 ch, 1 509 Kbps | Swedish

Mediainfo:

Код:
General
Unique ID                      : 210086852487876910285769082060310605815 (0x9E0D418A0ED396BA802D80871B046FF7)
Complete name                  : \Cirkeln.2015.1080p.BDRip.NNM-CLUB.mkv
Format                         : Matroska
Format version                 : Version 4 / Version 2
File size                      : 10.0 GiB
Duration                       : 2h 23mn
Overall bit rate               : 9 998 Kbps
Encoded date                   : UTC 2015-10-14 05:36:19
Writing application            : mkvmerge v7.4.0 ('Circles') 64bit built on Dec 12 2014 12:19:56
Writing library                : libebml v1.3.0 + libmatroska v1.4.1
_STATISTICS_WRITING_APP        : mkvmerge v7.4.0 ('Circles') 64bit built on Dec 12 2014 12:19:56
_STATISTICS_WRITING_DATE_UTC   : 2015-10-14 05:36:19
_STATISTICS_TAGS               : BPS DURATION NUMBER_OF_FRAMES NUMBER_OF_BYTES
DURATION                       : 02:17:07.920000000
NUMBER_OF_FRAMES               : 769
NUMBER_OF_BYTES                : 37805
Video
ID                             : 1
Format                         : AVC
Format/Info                    : Advanced Video Codec
Format profile                 : High@L4.1
Format settings, CABAC         : Yes
Format settings, ReFrames      : 5 frames
Codec ID                       : V_MPEG4/ISO/AVC
Duration                       : 2h 23mn
Bit rate                       : 8 300 Kbps
Width                          : 1 920 pixels
Height                         : 808 pixels
Display aspect ratio           : 2.40:1
Frame rate mode                : Constant
Frame rate                     : 24.000 fps
Color space                    : YUV
Chroma subsampling             : 4:2:0
Bit depth                      : 8 bits
Scan type                      : Progressive
Bits/(Pixel*Frame)             : 0.223
Stream size                    : 8.12 GiB (81%)
Writing library                : x264 core 146 r2538 121396c
Encoding settings              : cabac=1 / ref=5 / deblock=1:0:0 / analyse=0x3:0x133 / me=umh / subme=8 / psy=1 / psy_rd=1.00:0.00 / mixed_ref=1 / me_range=16 / chroma_me=1 / trellis=1 / 8x8dct=1 / cqm=0 / deadzone=21,11 / fast_pskip=0 / chroma_qp_offset=-2 / threads=18 / lookahead_threads=3 / sliced_threads=0 / nr=0 / decimate=1 / interlaced=0 / bluray_compat=0 / constrained_intra=0 / bframes=3 / b_pyramid=2 / b_adapt=2 / b_bias=0 / direct=3 / weightb=1 / open_gop=0 / weightp=2 / keyint=240 / keyint_min=24 / scenecut=40 / intra_refresh=0 / rc_lookahead=50 / rc=2pass / mbtree=1 / bitrate=8300 / ratetol=1.0 / qcomp=0.60 / qpmin=0 / qpmax=69 / qpstep=4 / cplxblur=20.0 / qblur=0.5 / ip_ratio=1.40 / aq=1:1.00
Default                        : Yes
Forced                         : No
Audio #1
ID                             : 2
Format                         : AC-3
Format/Info                    : Audio Coding 3
Mode extension                 : CM (complete main)
Format settings, Endianness    : Big
Codec ID                       : A_AC3
Duration                       : 2h 23mn
Bit rate mode                  : Constant
Bit rate                       : 192 Kbps
Channel(s)                     : 2 channels
Channel positions              : Front: L R
Sampling rate                  : 48.0 KHz
Bit depth                      : 16 bits
Compression mode               : Lossy
Stream size                    : 197 MiB (2%)
Language                       : Russian
Default                        : Yes
Forced                         : No
Audio #2
ID                             : 3
Format                         : DTS
Format/Info                    : Digital Theater Systems
Mode                           : 16
Format settings, Endianness    : Big
Codec ID                       : A_DTS
Duration                       : 2h 23mn
Bit rate mode                  : Constant
Bit rate                       : 1 509 Kbps
Channel(s)                     : 6 channels
Channel positions              : Front: L C R, Side: L R, LFE
Sampling rate                  : 48.0 KHz
Bit depth                      : 24 bits
Compression mode               : Lossy
Stream size                    : 1.51 GiB (15%)
Language                       : Swedish
Default                        : No
Forced                         : No
Text
ID                             : 4
Format                         : UTF-8
Codec ID                       : S_TEXT/UTF8
Codec ID/Info                  : UTF-8 Plain Text
Language                       : Russian
Default                        : Yes
Forced                         : No
Скриншоты:


Смотреть онлайн


[trackeroc.ru].8886.torrent 
Торрент: Зарегистрирован   [ 2015-10-18 08:58 ]

Скачать торрент

51 KB

Статус: проверено
Скачан: 12 раз
Размер: 10.03 GB
 

Admin (18-окт-15)
Похожие торренты
Форум Тема Автор Размер
Шансон / Авторская песня (Шансон) Ирина Круг - GRAND collection. Лучшее для лучших - 2015, MP3, 320 kbps Матвей 235 MB
Фантастика Фэнтези Круг / Cirkeln (2015) HDRip [VO] Admin 2.04 GB

_________________
[Профиль] [ЛС]
Показать сообщения:    
Ответить на тему

Текущее время: Сегодня 08:47

Часовой пояс: GMT + 4



Вы не можете начинать темы
Вы не можете отвечать на сообщения
Вы не можете редактировать свои сообщения
Вы не можете удалять свои сообщения
Вы не можете голосовать в опросах
Вы не можете прикреплять файлы к сообщениям
Вы можете скачивать файлы