Кунг-фу Кролик: Повелитель огня / Tu Xia Chuan Qi:Qing Li Chuan Shuo [2015]

Ответить на тему

Статистика раздачи [Обновить пиров]
Размер:  703 MB   |    Зарегистрирован:  1 год 1 месяц   |    Скачан:  8 раз
Сидов:  2  [  0 KB/s  ]   Подробная статистика пиров
   
 
Автор Сообщение

Матвей ®

Стаж: 1 год 2 месяца

Сообщений: 236

Откуда: Челябинск


Пост 15-Окт-2015 09:03

[Цитировать]

Кунг-фу Кролик: Повелитель огня / Tu Xia Chuan Qi:Qing Li Chuan Shuo «Убегающий тигр, спрятавшийся дракон»--- Производство: Китай / Shanghai Toonmax Media Co.
Жанр: мультфильм, комедия, приключения, семейный
Режиссер: Дейк Донг
Персонажи: Юньвэй Хэ, Ли Хуанг
Описание:
Победу в поединке сильнейших бойцов неожиданно одерживает неуклюжий с виду пушистый кролик, лучше других владеющий секретами древнего кунг-фу, после чего становится главным защитником деревни. Однако, не долго ему удается купаться в лучах славы и наслаждаться вниманием поклонников. Злодеи вознамерились выкрасть у кролика магический камень и тем самым лишить его силы. Сможет ли пушистый супергерой защитить деревню и противостоять злодеям без силы волшебного камня?

КиноПоиск
IMDB
Дата мировой премьеры: 21 февраля 2015
Дата российской премьеры: 17 сентября 2015, «Вольга» 3D
Продолжительность: 01:35:29
Качество: WEB-DLRip
Перевод: Профессиональный (полное дублирование) (iTunes)
Субтитры: Отсутствуют
Видео: XviD, 892 Кбит/с, 720x304
Аудио: AC3, 2 ch, 128 Кбит/с

MediaInfo:

Код:
General
Complete name                            : Tu Xia Chuan Qi Qing Li Chuan Shuo WEB DLRip.D.2015.700mb.avi
Format                                   : AVI
Format/Info                              : Audio Video Interleave
File size                                : 703 MiB
Duration                                 : 1h 35mn
Overall bit rate                         : 1 029 Kbps
Writing application                      : VirtualDubMod 1.5.10.3 | [url=http://www.virtualdub-fr.org]www.virtualdub-fr.org[/url] || (build 2550/release)
Writing library                          : VirtualDubMod build 2550/release
Video
ID                                       : 0
Format                                   : MPEG-4 Visual
Format profile                           : Advanced Simple@L5
Format settings, BVOP                    : 4
Format settings, QPel                    : No
Format settings, GMC                     : No warppoints
Format settings, Matrix                  : Default (H.263)
Codec ID                                 : XVID
Codec ID/Hint                            : XviD
Duration                                 : 1h 35mn
Bit rate                                 : 892 Kbps
Width                                    : 720 pixels
Height                                   : 304 pixels
Display aspect ratio                     : 2.35:1
Frame rate                               : 24.000 fps
Color space                              : YUV
Chroma subsampling                       : 4:2:0
Bit depth                                : 8 bits
Scan type                                : Progressive
Compression mode                         : Lossy
Bits/(Pixel*Frame)                       : 0.170
Stream size                              : 609 MiB (87%)
Writing library                          : XviD 73
Audio
ID                                       : 1
Format                                   : MPEG Audio
Format version                           : Version 1
Format profile                           : Layer 3
Codec ID                                 : 55
Codec ID/Hint                            : MP3
Duration                                 : 1h 35mn
Bit rate mode                            : Constant
Bit rate                                 : 128 Kbps
Channel count                            : 2 channels
Sampling rate                            : 48.0 KHz
Compression mode                         : Lossy
Stream size                              : 87.4 MiB (12%)
Alignment                                : Aligned on interleaves
Interleave, duration                     : 42 ms (1.00 video frame)
Interleave, preload duration             : 504 ms
Writing library                          : LAME3.99r
Encoding settings                        : -m s -V 4 -q 2 -lowpass 17 -b 128

Скриншоты:



Смотреть онлайн

[trackeroc.ru].8787.torrent 
Торрент: Зарегистрирован   [ 2015-10-15 09:03 ]

Скачать торрент

15 KB

Статус: проверено
Скачан: 29 раз
Размер: 703 MB
 

Метаморф (17-окт-15)
Похожие торренты
Форум Тема Автор Размер
Сasual games, Тайм менеджмент Weather Lord 7: Royal Holidays CE / Повелитель погоды 7: Королевские каникулы КИ [P] [RUS] (2016) HOPE 231 MB
Сasual games, Тайм менеджмент Weather Lord 6: Legendary Hero CE / Повелитель погоды 6: Легендарный герой КИ [P] [RUS] (2016) HOPE 834 MB
Зарубежные Кролик спаситель / Rescue Rabbit (2014) WEB-DLRip Admin 1.36 GB
Зарубежные Кунг-фу Панда 3 / Kung Fu Panda 3 (2016) WEBRip [Line] Admin 1.31 GB
Квесты , я ищу , Поиск предметов Hidden Object Alex Hunter: Lord of the Mind Platinum Edition / Алекс Хантер: Повелитель разума (2013) (RUS) [P] HOPE 1.13 GB

_________________

[Профиль] [ЛС]
Показать сообщения:    
Ответить на тему

Текущее время: Сегодня 13:38

Часовой пояс: GMT + 4



Вы не можете начинать темы
Вы не можете отвечать на сообщения
Вы не можете редактировать свои сообщения
Вы не можете удалять свои сообщения
Вы не можете голосовать в опросах
Вы не можете прикреплять файлы к сообщениям
Вы можете скачивать файлы