Кунг Фьюри / Kung Fury (2015) [WEB-DLRip] AVO (Володарский, Пучков)

Ответить на тему

Статистика раздачи [Обновить пиров]
Размер:  508 MB   |    Зарегистрирован:  1 год 4 месяца   |    Скачан:  7 раз
Сидов:  103  [  0 KB/s  ]   Подробная статистика пиров
   
 
Автор Сообщение

BiOS ®

Стаж: 2 года 7 месяцев

Сообщений: 1738

Откуда: Raccoon City


Пост 20-Июл-2015 10:04

[Цитировать]

Кунг Фьюри / Kung Fury
«It takes a cop from the future to fight an enemy from the pas»
- Страна: Швеция
Жанр: короткометражка, фантастика, фэнтези, боевик, комедия
Год выпуска: 2015
Продолжительность: 00:30:20
Перевод 1: Авторский (одноголосый закадровый) Леонид Володарский
Перевод 2: Авторский (одноголосый закадровый) Дмитрий "Гоблин" Пучков
Cубтитры: нет
Режиссер: Дэвид Сандберг / David Sandberg
В ролях: Дэвид Сандберг, Йорма Такконе, Леопольд Нильссон, Стивен Чю, Андреас Кахлинг, Эрик Хёрнквист, Элени Янг, Хелен Алсон, Пер-Хенрик Арвидус, Эос Карлссон
Описание: В Майами 80-х появляется самый опасный преступник всех времен — Адольф Гитлер, по прозвищу Кунг Фюрер. Суперкоп Кунг Фьюри решает совершить путешествие во времени в нацистскую Германию, чтобы убить Гитлера и положить конец нацистской империи.

В переводе Пучкова присутствует ненорматив
Качество видео: WEB-DLRip
Формат видео: AVI
Видео кодек: XviD
Аудио кодек: AC3
Видео: 688x384 (1.79:1), 25 fps, XviD build 73 ~1941 kbps avg, 0.29 bit/pixel
Аудио#1: 48 kHz, AC3 Dolby Digital, 2/0 (L,R) ch, ~192 kbps - Володарский
Аудио#2: 48 kHz, AC3 Dolby Digital, 2/0 (L,R) ch, ~192 kbps - Пучков

Доп.инфо

за перевод Володарского большое спасибо музыкальному сообществу «E:\music\Retrowave», а также Максиму Куприянову

MediaInfo

Полное имя : Кунг Фьюри 2015.avi
Формат : AVI
Формат/Информация : Audio Video Interleave
Размер файла : 508 Мбайт
Продолжительность : 30 м.
Общий поток : 2340 Кбит/сек
Программа кодирования : VirtualDubMod 1.5.10.2 (build 2540/release)
Библиотека кодирования : VirtualDubMod build 2540/release
Видео
Идентификатор : 0
Формат : MPEG-4 Visual
Профиль формата : Advanced Simple@L5
Параметр BVOP формата : 1
Параметр QPel формата : Нет
Параметр GMC формата : Без точки перехода
Параметр матрицы формата : Выборочная
Идентификатор кодека : XVID
Идентификатор кодека/Подсказка : XviD
Продолжительность : 30 м.
Битрейт : 1942 Кбит/сек
Ширина : 688 пикселей
Высота : 384 пикселя
Соотношение сторон : 16:9
Частота кадров : 25,000 кадров/сек
Цветовое пространство : YUV
Субдискретизация насыщенности : 4:2:0
Битовая глубина : 8 бит
Тип развёртки : Прогрессивная
Метод сжатия : С потерями
Бит/(Пиксели*Кадры) : 0.294
Размер потока : 422 Мбайт (83%)
Библиотека кодирования : XviD 73
Аудио #1
Идентификатор : 1
Формат : AC-3
Формат/Информация : Audio Coding 3
Расширение режима : CM (complete main)
Параметр Endianness формата : Big
Идентификатор кодека : 2000
Продолжительность : 30 м.
Вид битрейта : Постоянный
Битрейт : 192 Кбит/сек
Каналы : 2 канала
Расположение каналов : Front: L R
Частота : 48,0 КГц
Битовая глубина : 16 бит
Метод сжатия : С потерями
Размер потока : 41,7 Мбайт (8%)
Выравнивание : Разделение по промежуткам
Продолжительность промежутка : 40 мс. (1,00 видеокадр)
Время предзагрузки промежутка : 500 мс.
Заголовок : Володарский
Аудио #2
Идентификатор : 2
Формат : AC-3
Формат/Информация : Audio Coding 3
Расширение режима : CM (complete main)
Параметр Endianness формата : Big
Идентификатор кодека : 2000
Продолжительность : 30 м.
Вид битрейта : Постоянный
Битрейт : 192 Кбит/сек
Каналы : 2 канала
Расположение каналов : Front: L R
Частота : 48,0 КГц
Битовая глубина : 16 бит
Метод сжатия : С потерями
Размер потока : 41,5 Мбайт (8%)
Выравнивание : Разделение по промежуткам
Продолжительность промежутка : 40 мс. (1,01 видеокадр)
Время предзагрузки промежутка : 500 мс.
Заголовок : Гоблин

Kung Fury VHS - Игровое кино [Русская версия]


Скриншоты



Смотреть онлайн

[trackeroc.ru].7107.torrent 
Торрент: Зарегистрирован   [ 2015-07-20 10:05 ]

Скачать торрент

20 KB

Статус: проверено
Скачан: 52 раз
Размер: 508 MB
 

Admin (20-июл-15)
Похожие торренты
Форум Тема Автор Размер
Зарубежные Кунг-фу Панда 3 / Kung Fu Panda 3 (2016) WEBRip [Line] Admin 1.31 GB
Зарубежные Кунг-фу Кролик: Повелитель огня / Tu Xia Chuan Qi:Qing Li Chuan Shuo [2015] Матвей 703 MB
Комедии Кунг Фьюри / Kung Fury (2015) [WEBRip 1080p] DVO (Ozz) + Original Eng BiOS 1.53 GB

_________________
[Профиль] [ЛС]
Показать сообщения:    
Ответить на тему

Текущее время: Сегодня 06:55

Часовой пояс: GMT + 4



Вы не можете начинать темы
Вы не можете отвечать на сообщения
Вы не можете редактировать свои сообщения
Вы не можете удалять свои сообщения
Вы не можете голосовать в опросах
Вы не можете прикреплять файлы к сообщениям
Вы можете скачивать файлы