Легенда о звере / Beauty and the Beast (2005) DVDRip

Ответить на тему

Статистика раздачи [Обновить пиров]
Размер:  1.37 GB   |    Зарегистрирован:  10 месяцев 3 дня   |    Скачан:  4 раза

Полного источника не было: 21 день

 
 
 
 
Автор Сообщение

BiOS ®

Стаж: 2 года 7 месяцев

Сообщений: 1738

Откуда: Raccoon City


Пост 07-Фев-2016 10:32

[Цитировать]

Легенда о звере / Beauty and the Beast
«Only the brave will conquer»
- Производство: ЮАР, Великобритания / Crimson Knight
Жанр: Фэнтези, Боевик, Приключения, Семейный
Режиссер: Дэвид Листер
Актеры: Джейн Марч, Уильям Грегори Ли, Джастин Уэйлин, Дэвид Дюка, Грег Мелвилл-Смит, Кэндис Хиллебранд, Марсель Ван Хирдэн, Рассел Савадье
Описание:
Страшное проклятие тяготит земли короля Торссона. Чудовищный зверь обитает на одном из ближайших островов, наводя ужас на все королевство. Никому еще не удавалось одолеть чудовище и вернуться живым из его логова. И вот король решает сам испытать судьбу. Он отправляется в поход за головой зверя и бесследно исчезает вместе с лучшими воинами. Дочь Торссона, отважная принцесса Фрея, единственная, кто еще надеется увидеть короля живым. Она решает тайно добраться до зловещего острова и узнать, что же происходит там на самом деле…
Возраст: 16+ (зрителям, достигшим 16 лет)
Рейтинг MPAA: PG (детям до 13 лет просмотр не желателен)
Продолжительность: 01:29:10
Качество видео: DVDRip
Перевод: Профессиональный (многоголосный, закадровый)
Язык субтитров: Отсутствуют
Видео: Xvid, 704x400 (16:9), 25.000 fps, ~1741 Kbps (0.247 bit/pixel)
Аудио: AC-3, 48.0 KHz, 6 ch, 448 Kbps, CBR

Mediainfo:

Код:
General
Complete name                  : C:\Legenda.o.zvere.DVDRip.avi
Format                         : AVI
Format/Info                    : Audio Video Interleave
File size                      : 1.37 GiB
Duration                       : 1h 29mn
Overall bit rate               : 2 196 Kbps
Writing application            : VirtualDubMod 1.5.4.1 (build 2178/release)
Writing library                : VirtualDubMod build 2178/release
Video
ID                             : 0
Format                         : MPEG-4 Visual
Format profile                 : Advanced Simple@L5
Format settings, BVOP          : Yes
Format settings, QPel          : No
Format settings, GMC           : No warppoints
Format settings, Matrix        : Custom
Codec ID                       : XVID
Codec ID/Hint                  : XviD
Duration                       : 1h 29mn
Bit rate                       : 1 741 Kbps
Width                          : 704 pixels
Height                         : 400 pixels
Display aspect ratio           : 16:9
Frame rate                     : 25.000 fps
Color space                    : YUV
Chroma subsampling             : 4:2:0
Bit depth                      : 8 bits
Scan type                      : Progressive
Compression mode               : Lossy
Bits/(Pixel*Frame)             : 0.247
Stream size                    : 1.08 GiB (79%)
Writing library                : XviD 1.2.0.dev47 (UTC 2006-11-01)
Audio
ID                             : 1
Format                         : AC-3
Format/Info                    : Audio Coding 3
Mode extension                 : CM (complete main)
Format settings, Endianness    : Big
Codec ID                       : 2000
Duration                       : 1h 29mn
Bit rate mode                  : Constant
Bit rate                       : 448 Kbps
Channel(s)                     : 6 channels
Channel positions              : Front: L C R, Side: L R, LFE
Sampling rate                  : 48.0 KHz
Bit depth                      : 16 bits
Compression mode               : Lossy
Stream size                    : 286 MiB (20%)
Alignment                      : Split accross interleaves
Interleave, duration           : 96 ms (2.40 video frames)
Interleave, preload duration   : 96 ms
Language                       : Russian
-Скриншоты:


Смотреть онлайн

[trackeroc.ru].11525.torrent 
Торрент: Зарегистрирован   [ 2016-02-07 10:32 ]

Скачать торрент

14 KB

Статус: проверено
Скачан: 23 раз
Размер: 1.37 GB
 

Admin (07-фев-16)
Похожие торренты
Форум Тема Автор Размер
Зарубежные Кубо. Легенда о самурае / Kubo and the Two Strings (2016) HDRip [Звук с TS] BiOS 1.36 GB
Квесты , я ищу , Поиск предметов Hidden Object Royal Detective 3: Legend of the Golem Collector's Edition / Королевский детектив 3: Легенда о Големе[P] [RUS / ENG] (2016) HOPE 829 MB
Приключения Тарзан. Легенда / The Legend of Tarzan (2016) WEB-DLRip [H.264] [MP4|1024x428] BiOS 1.66 GB
Комедии Убойная стрижка / Легенда о Барни Томсоне / The Legend of Barney Thomson (2015) HDRip BiOS 1.37 GB
Отечественные Смешарики. Легенда о золотом драконе (2016) НDRip Admin 1.37 GB

_________________
[Профиль] [ЛС]
Показать сообщения:    
Ответить на тему

Текущее время: Сегодня 20:24

Часовой пояс: GMT + 4



Вы не можете начинать темы
Вы не можете отвечать на сообщения
Вы не можете редактировать свои сообщения
Вы не можете удалять свои сообщения
Вы не можете голосовать в опросах
Вы не можете прикреплять файлы к сообщениям
Вы можете скачивать файлы