Лего. Лучшие подружки. / LEGO Friends: Girlz 4 Life (2016) HDRip

Ответить на тему

Статистика раздачи [Обновить пиров]
Размер:  1.37 GB   |    Зарегистрирован:  10 месяцев 1 день   |    Скачан:  5 раз

Полного источника не было: 9 часов

 
 
 
 
Автор Сообщение

Admin ®

Стаж: 7 месяцев 13 дней

Сообщений: 4454

Откуда: trackeroc.ru


Пост 06-Фев-2016 13:26

[Цитировать]

Лего. Лучшие подружки. / LEGO Friends: Girlz 4 Life - Производство: США, М2 Entertainment
Жанр: Компьютерная анимация, Детский, Музыкальный
Режиссер: Кристиан Чесхаир, Томас Миккельсен, Даррен Кэмпбел
Актеры: Эрика Мендез, Милли О'Коннор, Марианна Миллер, Рэйчел Хэгер, Алекса Кан
Описание:
Красочный полнометражный мультфильм по мотивам популярного мультсериала LEGO «Подружки из Хартлейк Сити». «LEGO Friends: Лучшие подружки» – история приключений пяти очень разных, но очень дружных девочек, живущих в лего-городке. У каждой из них есть свое увлечение: Миа, например, обожает животных, Эмма самая спортивная, Оливия – настоящий изобретатель, Андреа танцует и поет, а Стефани – трудолюбивая девушка, которая любит готовить. Объединяет их не только крепкая дружба, но и общее дело – у девочек есть своя музыкальная группа. Однажды подруги узнают, что в Хартлейк Сити с концертом приезжает их любимая певица Ливи, и решают во что что бы то ни стало познакомиться с ней и показать звезде свои песни. Что ж, для этих девчонок нет ничего невозможного, несмотря на то, что у них есть серьезные конкуренты.
Продолжительность: 01:19:43
Качество видео: HDRip
Перевод: Многоголосый закадровый, профессиональный
Вид субтитров: Отсутствуют
Видео: Xvid, 720x400, ~2062 kbps
Аудио: AC3, 2 ch, 384 kbps, CBR

Mediainfo:

Код:
Общее
Полное имя                               : С:\LEGO Friends - Лучшие подружки 2016 HDRip.avi
Формат                                   : AVI
Формат/Информация                        : Audio Video Interleave
Размер файла                             : 1,37 Гбайт
Продолжительность                        : 1 ч. 19 м.
Общий поток                              : 2455 Кбит/сек
Программа кодирования                    : VirtualDubMod 1.5.10.3 | www.virtualdub-fr.org || (build 2550/release)
Библиотека кодирования                   : VirtualDub build 32842/release
Видео
Идентификатор                            : 0
Формат                                   : MPEG-4 Visual
Профиль формата                          : Advanced Simple@L5
Параметр BVOP формата                    : 2
Параметр QPel формата                    : Нет
Параметр GMC формата                     : Без точки перехода
Параметр матрицы формата                 : Default (H.263)
Режим смешивания                         : Сжатый битовый поток
Идентификатор кодека                     : XVID
Идентификатор кодека/Подсказка           : XviD
Продолжительность                        : 1 ч. 19 м.
Битрейт                                  : 2062 Кбит/сек
Ширина                                   : 720 пикселей
Высота                                   : 400 пикселей
Соотношение сторон                       : 16:9
Частота кадров                           : 23,976 (23976/1000) кадра/сек
Цветовое пространство                    : YUV
Субдискретизация насыщенности            : 4:2:0
Битовая глубина                          : 8 бит
Тип развёртки                            : Прогрессивная
Метод сжатия                             : С потерями
Бит/(Пиксели*Кадры)                      : 0.299
Размер потока                            : 1,15 Гбайт (84%)
Библиотека кодирования                   : XviD 67
Аудио
Идентификатор                            : 1
Формат                                   : AC-3
Формат/Информация                        : Audio Coding 3
Расширение режима                        : CM (complete main)
Параметр Endianness формата              : Big
Идентификатор кодека                     : 2000
Продолжительность                        : 1 ч. 19 м.
Вид битрейта                             : Постоянный
Битрейт                                  : 384 Кбит/сек
Каналы                                   : 2 канала
Расположение каналов                     : Front: L R
Частота                                  : 48,0 КГц
Частота кадров                           : 31,250 кадров/сек (1536 spf)
Метод сжатия                             : С потерями
Размер потока                            : 219 Мбайт (16%)
Выравнивание                             : Разделение по промежуткам
Продолжительность промежутка             : 42  мс. (1,00 видеокадр)
Время предзагрузки промежутка            : 500  мс.
-Скриншоты:


Смотреть онлайн

[trackeroc.ru].11510.torrent 
Торрент: Зарегистрирован   [ 2016-02-06 13:26 ]

Скачать торрент

28 KB

Статус: проверено
Скачан: 25 раз
Размер: 1.37 GB
 

BiOS (07-фев-16), bigyu63 (22-ноя-16)

_________________
[Профиль] [ЛС]
Показать сообщения:    
Ответить на тему

Текущее время: Сегодня 11:49

Часовой пояс: GMT + 4



Вы не можете начинать темы
Вы не можете отвечать на сообщения
Вы не можете редактировать свои сообщения
Вы не можете удалять свои сообщения
Вы не можете голосовать в опросах
Вы не можете прикреплять файлы к сообщениям
Вы можете скачивать файлы