Lego Звездные войны: Истории дроидов / Lego Star Wars: Droid Tales (2015) SATRip (сезон 1, серии 1-4 из 5)

Ответить на тему

Статистика раздачи [Обновить пиров]
Размер:  1.28 GB   |    Зарегистрирован:  1 год   |    Скачан:  5 раз
Сидов:  1  [  0 KB/s  ]   Подробная статистика пиров
   
 
Автор Сообщение

Admin ®

Стаж: 7 месяцев 11 дней

Сообщений: 4448

Откуда: trackeroc.ru


Пост 02-Ноя-2015 12:14

[Цитировать]

Lego Звездные войны: Истории дроидов / Lego Star Wars: Droid Tales - Производство: США, Дисней
Жанр: Мультсериал, приключения, семейный
Режиссер: Майкл Хэгнер
Актеры: Энтони Дэниелс, Тревор Дивэлл, Брайан Добсон, Майкл Донован, Брайан Драммонд, Эндрю Френсис, Адриан Холмс, Том Кэйн, Келли Мецгер, Кирби Морроу
Описание:
Давным-давно в далёкой-далёкой Галактике жили дроиды C-3PO и R2-D2. Находясь в эпицентре легендарных событий, они создали свою версию происходящего и решили поделиться ей с обитателями Вселенной.
Дата мировой премьеры: 6 июля 2015
Релиз от: ant31
Продолжительность: каждая серия х 00:22:00
Качество видео: SATRip
Перевод: Дублированный
Видео: MPEG4, XviD, 720x400 (16:9), 25.000 fps, 1 903 Kbps (0.264 bit/pixel)
Аудио: AC-3, 48.0 KHz, 2 ch, 192 Kbps, CBR

Mediainfo:

Код:
Формат                                   : AVI
Формат/Информация                        : Audio Video Interleave
Размер файла                             : 331 Мбайт
Продолжительность                        : 21 м.
Общий поток                              : 2104 Кбит/сек
Программа кодирования                    : VirtualDubMod 1.5.10.3 | www.virtualdub-fr.org || (build 2550/release)
Библиотека кодирования                   : VirtualDubMod build 2550/release
Видео
Идентификатор                            : 0
Формат                                   : MPEG-4 Visual
Профиль формата                          : Advanced Simple@L5
Параметр BVOP формата                    : 1
Параметр QPel формата                    : Нет
Параметр GMC формата                     : Без точки перехода
Параметр матрицы формата                 : Default (MPEG)
Идентификатор кодека                     : XVID
Идентификатор кодека/Подсказка           : XviD
Продолжительность                        : 21 м.
Битрейт                                  : 1903 Кбит/сек
Ширина                                   : 720 пикселей
Высота                                   : 400 пикселей
Соотношение сторон                       : 16:9
Частота кадров                           : 25,000 кадров/сек
Цветовое пространство                    : YUV
Субдискретизация насыщенности            : 4:2:0
Битовая глубина                          : 8 бит
Тип развёртки                            : Прогрессивная
Метод сжатия                             : С потерями
Бит/(Пиксели*Кадры)                      : 0.264
Размер потока                            : 299 Мбайт (90%)
Библиотека кодирования                   : XviD 1.2.1 (UTC 2008-12-04)
Аудио
Идентификатор                            : 1
Формат                                   : AC-3
Формат/Информация                        : Audio Coding 3
Расширение режима                        : CM (complete main)
Параметр Endianness формата              : Big
Идентификатор кодека                     : 2000
Продолжительность                        : 21 м.
Вид битрейта                             : Постоянный
Битрейт                                  : 192 Кбит/сек
Каналы                                   : 2 канала
Расположение каналов                     : Front: L R
Частота                                  : 48,0 КГц
Битовая глубина                          : 16 бит
Метод сжатия                             : С потерями
Размер потока                            : 30,2 Мбайт (9%)
Выравнивание                             : Разделение по промежуткам
Продолжительность промежутка             : 40  мс. (1,00 видеокадр)
Время предзагрузки промежутка            : 500  мс.
-Скриншоты:


Смотреть онлайн

[trackeroc.ru].9470.torrent 
Торрент: Зарегистрирован   [ 2015-11-26 11:33 ]

Скачать торрент

14 KB

Статус: проверено
Скачан: 39 раз
Размер: 1.28 GB
 

BiOS (17-ноя-15)
Похожие торренты
Форум Тема Автор Размер
Фантастика Фэнтези Другой мир: Войны крови / Underworld: Blood Wars (2016) CamRip BiOS 1.37 GB
Документальные Трейлеры Другой мир: Войны крови / Underworld: Blood Wars (2017) WEBRip [H.264/1080p] [Трейлер] BiOS 243 MB
Песочницы , Sandbox LEGO Worlds [Update 17 от 22.08.2016] [RUS|Multi6] (2016) Admin 907 MB
Комедии Соседи. На тропе войны 2 / Neighbors 2: Sorority Rising (2016) WEB-DLRip Admin 1.45 GB
XBox 360 | Игры LEGO Star Wars: The Force Awakens / LEGO Звездные войны: Пробуждение Силы (2016) [Xbox360] 17349 [LT+3.0] [Ru/En] Admin 8.14 GB

_________________
[Профиль] [ЛС]
Показать сообщения:    
Ответить на тему

Текущее время: Сегодня 16:06

Часовой пояс: GMT + 4



Вы не можете начинать темы
Вы не можете отвечать на сообщения
Вы не можете редактировать свои сообщения
Вы не можете удалять свои сообщения
Вы не можете голосовать в опросах
Вы не можете прикреплять файлы к сообщениям
Вы можете скачивать файлы