Леон / Leon (1994) BDRip

Ответить на тему

Статистика раздачи [Обновить пиров]
Размер:  1.46 GB   |    Зарегистрирован:  1 год   |    Скачан:  1 раз

Полного источника не было: 7 дней

 
 
 
 
Автор Сообщение

BiOS ®

Стаж: 2 года 7 месяцев

Сообщений: 1742

Откуда: Raccoon City


Пост 17-Ноя-2015 10:56

[Цитировать]

Леон / Leon - Русское название: Леон
Оригинальное название: Leon
Год выпуска: 1994
Жанр: Боевик, Криминал, Драма
Описание фильма:
Леон, хладнокровный и методичный наёмный убийца, спасает жизнь двенадцатилетней Матильды, семья которой погибла от рук коррумпированных полицейских, работников департамента по борьбе с наркотиками. Леону приходится взять на себя заботу о девочке. Матильда, решив отомстить за смерть своего младшего четырёхлетнего брата, уговаривает Леона научить её ремеслу профессионального убийцы. В «оплату» за учебу Матильда помогает вести домашнее хозяйство и учит самого Леона быть чуть более человечным.
Режиссер: Люк Бессон
Актеры: Жан Рено, Гэри Олдмэн, Натали Портман, Дэнни Айелло, Питер Эппел, Майкл Бадалуччо, Эллен Грин, Фрэнк Сенгер
Продолжительность: 02:12:50
Перевод: Одноголосый закадровый
Автор перевода: Дмитрий Пучков (Гоблин)
Видеокодек: Xvid
Битрейт видео: ~~1240 kbps
Размер кадра: 720x304
Качество видео: BDRip
Аудиокодек: AC3 5.1
Битрейт аудио: ~320.00 kbps

MediaInfo

Код:
Общее
Полное имя                               : C:\Users\Danila\Desktop\Leon.1994.Goblin.avi
Формат                                   : AVI
Формат/Информация                        : Audio Video Interleave
Размер файла                             : 1,46 Гбайт
Продолжительность                        : 2 ч. 12 м.
Общий поток                              : 1570 Кбит/сек
Название фильма                          : Леон / Leon [Director's Cut]
Режиссёр                                 : zim2001
Программа кодирования                    : VirtualDubMod 1.5.10.2 (build 2540/release)
Правообладатель                          : torrents.ru
Видео
Идентификатор                            : 0
Формат                                   : MPEG-4 Visual
Профиль формата                          : Advanced Simple@L5
Параметр BVOP формата                    : 1
Параметр QPel формата                    : Нет
Параметр GMC формата                     : Без точки перехода
Параметр матрицы формата                 : Выборочная
Идентификатор кодека                     : XVID
Идентификатор кодека/Подсказка           : XviD
Продолжительность                        : 2 ч. 12 м.
Битрейт                                  : 1241 Кбит/сек
Ширина                                   : 720 пикселей
Высота                                   : 304 пикселя
Соотношение сторон                       : 2,35:1
Частота кадров                           : 23,976 кадра/сек
Цветовое пространство                    : YUV
Субдискретизация насыщенности            : 4:2:0
Битовая глубина                          : 8 бит
Тип развёртки                            : Прогрессивная
Метод сжатия                             : С потерями
Бит/(Пиксели*Кадры)                      : 0.236
Размер потока                            : 1,15 Гбайт (79%)
Библиотека кодирования                   : XviD 1.2.1 (UTC 2008-12-04)
Аудио
Идентификатор                            : 1
Формат                                   : AC-3
Формат/Информация                        : Audio Coding 3
Расширение режима                        : CM (complete main)
Параметр Endianness формата              : Big
Идентификатор кодека                     : 2000
Продолжительность                        : 2 ч. 12 м.
Вид битрейта                             : Постоянный
Битрейт                                  : 320 Кбит/сек
Каналы                                   : 6 каналов
Расположение каналов                     : Front: L C R, Side: L R, LFE
Частота                                  : 48,0 КГц
Битовая глубина                          : 16 бит
Метод сжатия                             : С потерями
Размер потока                            : 304 Мбайт (20%)
Выравнивание                             : Разделение по промежуткам
Продолжительность промежутка             : 42  мс. (1,00 видеокадр)
Время предзагрузки промежутка            : 500  мс.
Скриншоты:

Рецензия, отзыв о фильме

Жил-был хитрый и ловкий киллер. Жил скромно и просто, убивал за дело и за деньги, и жизнь его была скучна и бессмысленна… пока не появилась девчушка с маленькой родинкой на щеке. Она была верна и преданна, избалована и девственна. Матильда.
Но щетинистому убийце по статусу неведом покой, он не может хранить её любовь вечно…
Я уверен, я знаю, что Лёнчик жив. Он до сих пор где-то убивает наркоторговцев, насильников, продажных полицейских и прочих грязных ублюдков!!! Он есть, его ни может не быть. Он найдет их всех… убьет чисто без звука, эффектно и профессионально. Он сделает это, я уверен… выпьет утром молоко и сделает, а потом исчезнет, чтобы появится снова.
Леон — волк, настоящий санитар лесного мегаполиса. Он талантливый хирург, удаляющий больную опухоль без наркоза. Он никогда не остановится.
И где-то вокруг этого кровавого возмездия и справедливости, рядом с ним будет Матильда, такая же влюбленная и красивая…
Чуточку обидно за Люка Бессона, главная премия Франции — «Сезар», так и не покорилась ему в далеком 1995, ни в одной из 7-ми номинаций фильм не выстрелил.
Но куда важнее в данной ситуации народная любовь зрителей.


Смотреть онлайн

[trackeroc.ru].9848.torrent 
Торрент: Зарегистрирован   [ 2015-11-17 10:56 ]

Скачать торрент

15 KB

Статус: проверено
Скачан: 12 раз
Размер: 1.46 GB
 

Admin (17-ноя-15)

_________________
[Профиль] [ЛС]
Показать сообщения:    
Ответить на тему

Текущее время: Сегодня 17:38

Часовой пояс: GMT + 4



Вы не можете начинать темы
Вы не можете отвечать на сообщения
Вы не можете редактировать свои сообщения
Вы не можете удалять свои сообщения
Вы не можете голосовать в опросах
Вы не можете прикреплять файлы к сообщениям
Вы можете скачивать файлы