Лес призраков / The Forest [2016, США, ужасы, WEB-DLRip]

Ответить на тему

Статистика раздачи [Обновить пиров]
Скачали
Размер:  1.47 GB   |    Зарегистрирован:  8 месяцев 15 дней   |    Скачан:  1 раз

Полного источника не было: 5 месяцев 2 дня

 
 
 
 
Автор Сообщение

Admin ®

Стаж: 7 месяцев 15 дней

Сообщений: 4460

Откуда: trackeroc.ru


Пост 26-Мар-2016 18:34

[Цитировать]

-Лес призраков | The Forest -Страна: США
Жанр: ужасы, детектив
Год выпуска: 2016
Продолжительность: 01:33:17
Перевод: Профессиональный (дублированный) Line
Cубтитры: нет
Оригинальная аудиодорожка: английский-Режиссер: Джейсон Зада / Jason Zada-В ролях: Натали Дормер, Оуэн Мэкен, Стефани Вогт, Осаму Танпопо, Ясуо Тобисима, Ибуки Канеда, Акико Ивасе, Кикуо Ичикава, Норико Сакура, Йозеф Аоки-Описание: Юная американка Сара отправляется на поиски сестры-близняшки, которая таинственным образом исчезла на японском острове Хонсю. Поиски приводят к подножью горы Фудзи, в таинственный лес, который пользуется дурной славой. Сара не подозревала, что она вступает в мрачный мир призраков, злых и измученных душ, которые охотятся на любого, кто блуждает по их мрачному лесу...
-Качество видео: WEB-DLRip
Формат видео: AVI
Видео: XviD 704x384 (1.83:1), 23.976 fps, XviD build 73 ~1850 kbps avg, 0.28 bit/pixel
Аудио: 48 kHz, AC3 Dolby Digital, 2/0 (L,R) ch, ~192 kbps - RUS
Аудио 2: 48 kHz, AC3 Dolby Digital, 2/0 (L,R) ch, ~192 kbps - ENG-

MediaInfo

General
Complete name : D:\Фильмы\Les.prizrakov.2015.D.WEB-DLRip.1.46Gb.avi
Format : AVI
Format/Info : Audio Video Interleave
File size : 1.47 GiB
Duration : 1h 33mn
Overall bit rate : 2 249 Kbps
Movie name : Les.prizrakov.2015.D.WEB-DLRip.1.46Gb_by_Twi7ter
Director : Twi7ter
Genre : Horror
Writing application : VirtualDubMod 1.5.10.3 (build 2550/release)
Original source form/Name : Movie
Video
ID : 0
Format : MPEG-4 Visual
Format profile : Advanced Simple@L5
Format settings, BVOP : 2
Format settings, QPel : No
Format settings, GMC : No warppoints
Format settings, Matrix : Custom
Codec ID : XVID
Codec ID/Hint : XviD
Duration : 1h 33mn
Bit rate : 1 851 Kbps
Width : 704 pixels
Height : 384 pixels
Display aspect ratio : 1.85:1
Frame rate : 23.976 (24000/1001) fps
Color space : YUV
Chroma subsampling : 4:2:0
Bit depth : 8 bits
Scan type : Progressive
Compression mode : Lossy
Bits/(Pixel*Frame) : 0.286
Stream size : 1.21 GiB (82%)
Writing library : XviD 73
Audio #1
ID : 1
Format : AC-3
Format/Info : Audio Coding 3
Mode extension : CM (complete main)
Format settings, Endianness : Big
Codec ID : 2000
Duration : 1h 33mn
Bit rate mode : Constant
Bit rate : 192 Kbps
Channel(s) : 2 channels
Channel positions : Front: L R
Sampling rate : 48.0 KHz
Frame rate : 31.250 fps (1536 spf)
Compression mode : Lossy
Stream size : 128 MiB (9%)
Alignment : Split accross interleaves
Interleave, duration : 42 ms (1.00 video frame)
Interleave, preload duratio : 500 ms
Audio #2
ID : 2
Format : AC-3
Format/Info : Audio Coding 3
Mode extension : CM (complete main)
Format settings, Endianness : Big
Codec ID : 2000
Duration : 1h 33mn
Bit rate mode : Constant
Bit rate : 192 Kbps
Channel(s) : 2 channels
Channel positions : Front: L R
Sampling rate : 48.0 KHz
Frame rate : 31.250 fps (1536 spf)
Compression mode : Lossy
Stream size : 128 MiB (9%)
Alignment : Split accross interleaves
Interleave, duration : 42 ms (1.00 video frame)
Interleave, preload duratio : 500 ms
-

Скриншот c названием фильма

Скриншоты

-


Смотреть онлайн

[trackerock.ru].12263.torrent 
Торрент: Зарегистрирован   [ 2016-03-26 18:34 ]

Скачать торрент

15 KB

Статус: проверено
Скачан: 13 раз
Размер: 1.47 GB
 

Похожие торренты
Форум Тема Автор Размер
Логические игры, пазлы ,три в ряд Fill and Cross Trick or Treat 3 / Загадки призраков 3. Угадай картинку [P] [RUS] (2016) HOPE 48 MB
Ужасы мистика триллеры Лес призраков / The Forest (2016) WEBRip Admin 1.36 GB

_________________
[Профиль] [ЛС]
Показать сообщения:    
Ответить на тему

Текущее время: Сегодня 22:23

Часовой пояс: GMT + 4



Вы не можете начинать темы
Вы не можете отвечать на сообщения
Вы не можете редактировать свои сообщения
Вы не можете удалять свои сообщения
Вы не можете голосовать в опросах
Вы не можете прикреплять файлы к сообщениям
Вы можете скачивать файлы