Лоскутный город / Patch Town (2014) WEB-DLRip скачать торрент

Ответить на тему

Статистика раздачи [Обновить пиров]
Размер:  1.38 GB   |    Зарегистрирован:  1 год 8 месяцев   |    Скачан:  6 раз

Полного источника не было: 4 месяца 3 дня

 
 
 
 
 
Автор Сообщение

BiOS ®

Стаж: 4 года 5 месяцев

Сообщений: 2116

Откуда: East Siberia


Пост 10-Янв-2017 14:28

[Цитировать]

Лоскутный город / Patch Town
«Abandoned but not forgotten»
- Производство: Канада, Kino Lorber, VSC, Video Service Corporation
Жанр: Фэнтези, Приключения, Комедия, Мюзикл
Режиссер: Крэйг Гудвил
Актеры: Зои Палмер, Джулиан Ричингс, Роб Рамсей, Суреш Джон, Стэфани Питсиладис, Кен Холл, Алан С. Петерсон, Аллан Харкин, Том Барнетт, Кайла Ди Венере
Описание:
Джон не помнил свою мать, работал на заводе по производству игрушек и всегда мечтал завести семью. И когда мечта сбылась и он завел семью, то ему стали грозить серьезные неприятности. И он решает сбежать из Капустного города. Но по пути он понимает, что просто обязан найти смою маму. Приключения только начинаются.
Релиз от: BadBajo
Продолжительность: 01:23:42
Качество видео: WEB-DLRip
Перевод: Одноголосый закадровый
Автор перевода: BadBajo
Видео: Xvid, 720x480, ~2036 kbps
Аудио: MP3, 2 ch, 320 Kbps, CBR l Русский (AVO, BadBajo)

Mediainfo:

Код:
Format                      : Matroska
Format version              : Version 4 / Version 2
File size                   : 1.38 GiB
Duration                    : 1 h 23 min
Overall bit rate            : 2 361 kb/s
Encoded date                : UTC 2017-01-08 14:23:03
Writing application         : mkvmerge v9.5.0 ('Quiet Fire') 64bit
Writing library             : libebml v1.3.4 + libmatroska v1.4.5
Cover                       : Yes
Attachments                 : cover.jpg
Video
ID                          : 1
Format                      : MPEG-4 Visual
Format profile              : Advanced Simple@L1
Format settings, BVOP       : No
Format settings, QPel       : No
Format settings, GMC        : No warppoints
Format settings, Matrix     : Default (H.263)
Codec ID                    : V_MPEG4/ISO/ASP
Codec ID/Info               : Advanced Simple Profile
Duration                    : 1 h 23 min
Bit rate                    : 2 036 kb/s
Width                       : 720 pixels
Height                      : 480 pixels
Display aspect ratio        : 16:9
Frame rate mode             : Constant
Frame rate                  : 59.940 (60000/1001) FPS
Color space                 : YUV
Chroma subsampling          : 4:2:0
Bit depth                   : 8 bits
Scan type                   : Progressive
Compression mode            : Lossy
Bits/(Pixel*Frame)          : 0.098
Stream size                 : 1.19 GiB (86%)
Title                       : Main video
Writing library             : Lavc56.35.101
Default                     : No
Forced                      : No
Audio
ID                          : 2
Format                      : MPEG Audio
Format version              : Version 1
Format profile              : Layer 3
Mode                        : Joint stereo
Codec ID                    : A_MPEG/L3
Codec ID/Hint               : MP3
Duration                    : 1 h 23 min
Bit rate mode               : Constant
Bit rate                    : 320 kb/s
Channel(s)                  : 2 channels
Sampling rate               : 48.0 kHz
Frame rate                  : 41.667 FPS (1152 spf)
Compression mode            : Lossy
Stream size                 : 192 MiB (14%)
Language                    : Russian
Default                     : Yes
Forced                      : Yes

Дополнительная информация:

Версий, почему детей находят именно в капусте очень много. Вот некоторые из них:
1. Нашли на грядке с капустой - время уборки капусты (конец сентября или начало октября) и частых родов, ведь за 9 месяцев до этого как раз святки, время веселья, долгих зимних ночей и отдыха от огорода.
2. Кроме того все осенние тяжелые работы и вызывали некоторую часть преждевременных родов прямо на поле.
3. Рожали на Руси в банях, а ведь многие из них топили и по-черному. Пеленки хоть и готовили загодя, но экономили, и просто так не выкидывали. А на грязную лавку новорожденного не положишь, поэтому пока его не обтерли, вот и укладывали на капустные листья (весь август, сентябрь и начало октября - листья в достатке). А старшие дети, кто приносил листья в баню и после родов видел их в бане уже грязными, рассказывали про то другим детям, а взрослые и не переубеждали.
3. Слово «капуста» пришло к нам из древнего Рима, «капутум »(голова) , это означает форма овоща то есть голова. Если вспомнить Мифы древней Греции, то Афина Палада, если Вы помните, родилась как раз таки из головы Зевса. Может отсюда это выражение произошло «тебя в капусте нашли» .
-Скриншоты:


Смотреть онлайн


[trackeroc.ru].17771.torrent 
Торрент: Зарегистрирован   [ 2017-01-10 14:28 ]

Скачать торрент

14 KB

Статус: проверено
Скачан: 79 раз
Размер: 1.38 GB
 


Похожие торренты
Форум Тема Автор Размер
Action, экшены City of Brass / Медный город v1.2.0 (2018) (ENG+RUS) RePack от R.G. Механики Admin 1.22 GB
Детективы ,криминал Город бомба / Bomb City Admin 1.37 GB
Квесты, я ищу, Поиск предметов, Hidden Object Мрачные Хроники: Город Грехов / Noir Chronicles: City of Crime (2018) (ENG+RUS) Admin 899 MB
Квесты, я ищу, Поиск предметов, Hidden Object Dark City: London / Мрачный Город: Лондон [RUS / ENG] (2017) Admin 1.09 GB
Приключенческие игры, Adventure Crystal City: Stop The Earth! I'm Getting Off! / Хрустальный Город: Остановите Землю, Я Сойду! [VN][7DOTS][18+][ENG+RUS] Admin 276 MB

_________________
[Профиль] [ЛС]
Показать сообщения:    
Ответить на тему

Текущее время: Сегодня 22:51

Часовой пояс: GMT + 4



Вы не можете начинать темы
Вы не можете отвечать на сообщения
Вы не можете редактировать свои сообщения
Вы не можете удалять свои сообщения
Вы не можете голосовать в опросах
Вы не можете прикреплять файлы к сообщениям
Вы можете скачивать файлы