Инфинити - Сборник видеоклипов (2008-2015) WEBRip [H.264/720p-LQ]

Ответить на тему

Статистика раздачи [Обновить пиров]
Размер:  606 MB   |    Зарегистрирован:  6 месяцев 26 дней   |    Скачан:  2 раза

Полного источника не было: 1 день 9 часов

 
 
 
 
Автор Сообщение

BiOS ®

Стаж: 2 года 7 месяцев

Сообщений: 1730

Откуда: Raccoon City


Пост 10-Май-2016 07:23

[Цитировать]

Инфинити - Сборник видеоклипов - Производство: Россия
Жанр: Музыка, клипы
Продолжительность: 00:36:35
Качество видео: WEB-DLRip
Перевод: Отсутствует
Субтитры: нет
Видео: AVI/AVC/H.264, 1280x720 (16:9), 25.000 fps, ~2177 kbps, 0.085 bit/pixel
Аудио: mp3, 2 ch, 128 kbps
Треклист:
1. А он такой
2. Где ты
3. Как тебя звать
4. Когда уйдешь
5. Крылья
6. Моё счастье
7. Нежно
8. Ну и пусть
9. Ты мой герой
10. Я так скучаю

MediaInfo

Код:
Общее
Формат                                   : AVI
Формат/Информация                        : Audio Video Interleave
Размер файла                             : 52,1 Мбайт
Продолжительность                        : 3 м. 30 с.
Общий поток                              : 2082 Кбит/сек
Программа кодирования                    : MEncoder SVN-r33883(20110719-gcc4.5.2)
Библиотека кодирования                   : MPlayer
Видео
Идентификатор                            : 0
Формат                                   : AVC
Формат/Информация                        : Advanced Video Codec
Профиль формата                          : High@L3.1
Параметр CABAC формата                   : Да
Параметр ReFrames формата                : 1 кадр
Идентификатор кодека                     : H264
Продолжительность                        : 3 м. 30 с.
Битрейт                                  : 1941 Кбит/сек
Ширина                                   : 1280 пикселей
Высота                                   : 720 пикселей
Соотношение сторон                       : 16:9
Режим частоты кадров                     : Переменный
Частота кадров                           : 25,000 кадров/сек
Цветовое пространство                    : YUV
Субдискретизация насыщенности            : 4:2:0
Битовая глубина                          : 8 бит
Тип развёртки                            : Прогрессивная
Бит/(Пиксели*Кадры)                      : 0.084
Размер потока                            : 48,6 Мбайт (93%)
Аудио
Идентификатор                            : 1
Формат                                   : MPEG Audio
Версия формата                           : Version 1
Профиль формата                          : Layer 3
Режим                                    : Joint stereo
Расширение режима                        : MS Stereo
Идентификатор кодека                     : 55
Идентификатор кодека/Подсказка           : MP3
Продолжительность                        : 3 м. 30 с.
Вид битрейта                             : Постоянный
Битрейт                                  : 128 Кбит/сек
Каналы                                   : 2 канала
Частота                                  : 44,1 КГц
Метод сжатия                             : С потерями
Размер потока                            : 3,20 Мбайт (6%)
Выравнивание                             : Соединение по промежуткам
Продолжительность промежутка             : 26  мс. (0,65 видеокадр)
Время предзагрузки промежутка            : 522  мс.
-Скриншоты:


[trackeroc.ru].12602.torrent 
Торрент: Зарегистрирован   [ 2016-05-10 07:23 ]

Скачать торрент

13 KB

Статус: проверено
Скачан: 22 раз
Размер: 606 MB
 

Admin (10-май-16)
Похожие торренты
Форум Тема Автор Размер
Старые игры для PC до 2005 года [Сборник] Duke Nukem 1, 2, 3D Atomic Edition, Manhattan Project [GOG] [ENG] Admin 442 MB
Сборники программ Сборник программ Portable от sibiryaksoft v.23.10 (x86/64) (2015) [Rus] Матвей 3.95 GB
Сборники программ Сборник программ Portable v.03.10 от sibiryaksoft (x86/x64)[Multi/Ru](2015) Матвей 3.9 GB
Xbox 360 | Soft Сборник программ для Freeboot (2013) [Ru/En] [Soft] [Xbox360] BiOS 1.55 GB

_________________
[Профиль] [ЛС]
Показать сообщения:    
Ответить на тему

Текущее время: Сегодня 04:46

Часовой пояс: GMT + 4



Вы не можете начинать темы
Вы не можете отвечать на сообщения
Вы не можете редактировать свои сообщения
Вы не можете удалять свои сообщения
Вы не можете голосовать в опросах
Вы не можете прикреплять файлы к сообщениям
Вы можете скачивать файлы