Лучше не бывает [серии 1-12 из 12] (Евгений Семёнов) [2015, лирическая комедия, WEB-DLRip]

Ответить на тему

Статистика раздачи [Обновить пиров]
Размер:  8.43 GB   |    Зарегистрирован:  1 год 1 месяц   |    Скачан:  3 раза

Полного источника не было: 11 дней

 
 
 
 
Автор Сообщение

Матвей ®

Стаж: 1 год 2 месяца

Сообщений: 236

Откуда: Челябинск


Пост 12-Окт-2015 22:35

[Цитировать]

Лучше не бывает (серии 1-12 из 12)-- Производство: Россия, кинокомпания "Среда"
Жанр: лирическая комедия
Режиссер: Евгений Семёнов
Актеры: Марина Коняшкина, Дмитрий Шевченко, Артём Осипов, Ирина Пегова, Эра Зиганшина, Илья Матюшин, Ксения Роменкова, Анастасия Попова (II), Михаил Трухин, Екатерина Кабак, Кристина Кузьмина, Игорь Савочкин, Артур Ваха, Игорь Ботвин, Анна Алексахина, Борис Бирман, Алексей Ведерников (II), Анжелика Неволина, Вадим Волков, Мария Шурубова
Описание:
Виктория Чернова успешна, счастлива замужем, имеет сына, живет в большом доме в достатке и является объектом зависти для многих окружающих её людей. Но вся эта «сладкая жизнь» заканчивается в одночасье. Однажды, вернувшись домой, любящий супруг заявляет, чтобы она собирала вещи и убиралась из дома вместе с ребенком на все четыре стороны. Он полюбил другую женщину. Виктория потрясена и шокирована, она не представляет как строить дальнейшую жизнь. Но спасает сильный характер. И Вика решает добиваться всего сама, собственными силами.

КиноПоиск
Дата российской премьеры: 7 сентября 2015
Продолжительность: ~ 00:50:00 серия
Качество видео: WEB-DLRip
Видео: XVID, 720x400 (16:9), ~1800 Kbps
Аудио: AC3, 2 ch, 192 Kbps

MediaInfo:

Код:
Общее
Полное имя                               : F:\DOWNLOADS\Лучше не бывает (2015) WEB-DLRip\Лучше не бывает - 01 серия.avi
Формат                                   : AVI
Формат/Информация                        : Audio Video Interleave
Размер файла                             : 712 Мбайт
Продолжительность                        : 49 м.
Общий поток                              : 2002 Кбит/сек
Программа кодирования                    : VirtualDubMod 1.5.10.3 | [url=http://www.virtualdub-fr.org]www.virtualdub-fr.org[/url] || (build 2550/release)
Библиотека кодирования                   : VirtualDubMod build 2550/release
Видео
Идентификатор                            : 0
Формат                                   : MPEG-4 Visual
Профиль формата                          : Advanced Simple@L5
Параметр BVOP формата                    : 1
Параметр QPel формата                    : Нет
Параметр GMC формата                     : Без точки перехода
Параметр матрицы формата                 : Default (MPEG)
Идентификатор кодека                     : XVID
Идентификатор кодека/Подсказка           : XviD
Продолжительность                        : 49 м.
Битрейт                                  : 1800 Кбит/сек
Ширина                                   : 720 пикселей
Высота                                   : 400 пикселей
Соотношение сторон                       : 16:9
Частота кадров                           : 25,000 кадров/сек
Цветовое пространство                    : YUV
Субдискретизация насыщенности            : 4:2:0
Битовая глубина                          : 8 бит
Тип развёртки                            : Прогрессивная
Метод сжатия                             : С потерями
Бит/(Пиксели*Кадры)                      : 0.250
Размер потока                            : 640 Мбайт (90%)
Библиотека кодирования                   : XviD 73
Аудио
Идентификатор                            : 1
Формат                                   : AC-3
Формат/Информация                        : Audio Coding 3
Расширение режима                        : CM (complete main)
Параметр Endianness формата              : Big
Идентификатор кодека                     : 2000
Продолжительность                        : 49 м.
Вид битрейта                             : Постоянный
Битрейт                                  : 192 Кбит/сек
Каналы                                   : 2 канала
Расположение каналов                     : Front: L R
Частота                                  : 44,1 КГц
Метод сжатия                             : С потерями
Размер потока                            : 68,3 Мбайт (10%)
Выравнивание                             : Разделение по промежуткам
Продолжительность промежутка             : 40  мс. (1,00 видеокадр)
Время предзагрузки промежутка            : 500  мс.

Скриншоты:



Смотреть онлайн

[trackeroc.ru].8650.torrent 
 ЗОЛОТАЯ РАЗДАЧА! СКАЧАННОЕ НЕ ЗАСЧИТЫВАЕТСЯ! 
Торрент: Зарегистрирован   [ 2015-10-12 22:35 ]

Скачать торрент

44 KB

Статус: проверено
Скачан: 17 раз
Размер: 8.43 GB
 

Admin (12-окт-15)
Похожие торренты
Форум Тема Автор Размер
Зарубежные сериалы Лучше звоните Солу / Better Call Saul (2016) WEBRip (сезон 2, серии 1-10) Admin 5.53 GB
Зарубежные сериалы Лучше звоните Солу / Better Call Saul / Сезон: 1 / Серии 1-10 [2015 WEB-DLRip] Admin 5.79 GB

_________________

[Профиль] [ЛС]
Показать сообщения:    
Ответить на тему

Текущее время: Сегодня 19:20

Часовой пояс: GMT + 4



Вы не можете начинать темы
Вы не можете отвечать на сообщения
Вы не можете редактировать свои сообщения
Вы не можете удалять свои сообщения
Вы не можете голосовать в опросах
Вы не можете прикреплять файлы к сообщениям
Вы можете скачивать файлы