Лучше звоните Солу / Better Call Saul / Сезон: 1 / Серии 1-10 [2015 WEB-DLRip]

Ответить на тему

Статистика раздачи [Обновить пиров]
Размер:  5.79 GB   |    Зарегистрирован:  1 год 4 месяца   |    Скачан:  4 раза
Сидов:  53  [  0 KB/s  ]   Личеров:  13  [  0 KB/s  ]   Подробная статистика пиров
   
 
Автор Сообщение

Admin ®

Стаж: 7 месяцев 11 дней

Сообщений: 4448

Откуда: trackeroc.ru


Пост 02-Авг-2015 18:14

[Цитировать]

-Лучше звоните Солу | Better Call Saul-- Год выпуска: 2015
Страна: США
Жанр: драма, комедия, криминал
Продолжительность: ~ 00:53:00-Перевод: Профессиональный (многоголосый закадровый) | LostFilm-Режиссёр: Колин Бакси, Адам Бернштейн, Винс Гиллиган-В ролях: Боб Оденкёрк, Ри Сихорн, Патрик Фабиан, Майкл МакКин, Майкл Мэндо, Джонатан Бэнкс, Ген Н. Чавес, Джил Мюррэй-Описание: История об испытаниях и невзгодах, которые приходится преодолеть Солу Гудману, адвокату по уголовным делам, в тот период, когда он пытается открыть свою собственную адвокатскую контору в Альбукерке, штат Нью-Мексико. Cпин-офф сериала «Во все тяжкие».- -| Ссылка на предыдущие и альтернативные раздачи-Качество: WEB-DLRip
Формат: AVI
Видео: XviD, 720x400 (16:9), 23.976 fps, ~1500 kbps
Аудио 1: MP3, 48 kHz, 2 ch, 128 kbps - Rus
Аудио 2: MP3, 48 kHz, 2 ch, 128 kbps - Eng
Субтитры: Русские (Leprastyle), английские-

Релиз

рип, синхронизация звука и субтитров - qqss44

MediaInfo

Код:
Общее
Формат                                   : AVI
Формат/Информация                        : Audio Video Interleave
Размер файла                             : 672 Мбайт
Продолжительность                        : 53 м.
Общий поток                              : 1770 Кбит/сек
Программа кодирования                    : VirtualDubMod 1.5.10.3 | www.virtualdub-fr.org || (build 2550/release)
Библиотека кодирования                   : VirtualDubMod build 2550/release
Видео
Идентификатор                            : 0
Формат                                   : MPEG-4 Visual
Профиль формата                          : Advanced Simple@L5
Параметр BVOP формата                    : 1
Параметр QPel формата                    : Нет
Параметр GMC формата                     : Без точки перехода
Параметр матрицы формата                 : Default (MPEG)
Идентификатор кодека                     : XVID
Идентификатор кодека/Подсказка           : XviD
Продолжительность                        : 53 м.
Битрейт                                  : 1500 Кбит/сек
Ширина                                   : 720 пикселей
Высота                                   : 400 пикселей
Соотношение сторон                       : 16:9
Частота кадров                           : 23,976 кадра/сек
Цветовое пространство                    : YUV
Субдискретизация насыщенности            : 4:2:0
Битовая глубина                          : 8 бит
Тип развёртки                            : Прогрессивная
Метод сжатия                             : С потерями
Бит/(Пиксели*Кадры)                      : 0.217
Размер потока                            : 569 Мбайт (85%)
Библиотека кодирования                   : XviD 73
Аудио #1
Идентификатор                            : 1
Формат                                   : MPEG Audio
Версия формата                           : Version 1
Профиль формата                          : Layer 3
Режим                                    : Joint stereo
Расширение режима                        : MS Stereo
Идентификатор кодека                     : 55
Идентификатор кодека/Подсказка           : MP3
Продолжительность                        : 53 м.
Вид битрейта                             : Постоянный
Битрейт                                  : 128 Кбит/сек
Каналы                                   : 2 канала
Частота                                  : 48,0 КГц
Метод сжатия                             : С потерями
Размер потока                            : 48,6 Мбайт (7%)
Выравнивание                             : Соединение по промежуткам
Продолжительность промежутка             : 42  мс. (1,00 видеокадр)
Время предзагрузки промежутка            : 504  мс.
Аудио #2
Идентификатор                            : 2
Формат                                   : MPEG Audio
Версия формата                           : Version 1
Профиль формата                          : Layer 3
Режим                                    : Joint stereo
Расширение режима                        : MS Stereo
Идентификатор кодека                     : 55
Идентификатор кодека/Подсказка           : MP3
Продолжительность                        : 53 м.
Вид битрейта                             : Постоянный
Битрейт                                  : 128 Кбит/сек
Каналы                                   : 2 канала
Частота                                  : 48,0 КГц
Метод сжатия                             : С потерями
Размер потока                            : 48,6 Мбайт (7%)
Выравнивание                             : Соединение по промежуткам
Продолжительность промежутка             : 42  мс. (1,00 видеокадр)
Время предзагрузки промежутка            : 504  мс.

Скриншоты

Раздача ведется путем добавления новых серий

Когда раздача ведётся путём добавления новых серий, при каждом добавлении создётся новый торрент. Чтобы начать докачку новой серии, пользователям необходимо сделать следующее:
(1) остановить скачивание,
(2) удалить старый торрент у себя из клиента (старые серии удалять не надо),
(3) скачать новый торрент и запустить его у себя в клиенте вместо старого, при этом указать клиенту путь в старую папку, куда и должно происходить скачивание новых серий.
Ваш клиент при этом должен произвести хеширование (проверку) старой папки (если не производит сам - помогите ему сделать это), и будет докачивать только те серии, которых у вас ещё нет. Старые серии при этом не удаляются, а продолжают раздаваться!
Eсли вы уже удалили старые серии, то предотвратить повторную закачку старых серий можно, отжав галочку в соответсвующих местах при запуске нового торрента. По возможности, желательно не удалять старые серии как можно дольше, чтобы релизёр не столько продолжал раздавать старые серии, а смог сконцентрироваться на новых.
-


Смотреть онлайн

[trackeroc.ru].7302.torrent 
Торрент: Зарегистрирован   [ 2015-08-02 18:14 ]

Скачать торрент

32 KB

Статус: проверено
Скачан: 8 раз
Размер: 5.79 GB
 

Zuim (28-авг-15)
Похожие торренты
Форум Тема Автор Размер
Зарубежные сериалы Лучше звоните Солу / Better Call Saul (2016) WEBRip (сезон 2, серии 1-10) Admin 5.53 GB
Российские сериалы Лучше не бывает [серии 1-12 из 12] (Евгений Семёнов) [2015, лирическая комедия, WEB-DLRip] Матвей 8.43 GB

_________________
[Профиль] [ЛС]
Показать сообщения:    
Ответить на тему

Текущее время: Сегодня 19:55

Часовой пояс: GMT + 4



Вы не можете начинать темы
Вы не можете отвечать на сообщения
Вы не можете редактировать свои сообщения
Вы не можете удалять свои сообщения
Вы не можете голосовать в опросах
Вы не можете прикреплять файлы к сообщениям
Вы можете скачивать файлы