Люцифер / Lucifer (2015) WEB-DL [H.264/1080p-LQ] (сезон 1, серии 1-13) NewStudio

Ответить на тему

Статистика раздачи [Обновить пиров]
Скачали
Размер:  23.01 GB   |    Зарегистрирован:  6 месяцев 29 дней   |    Скачан:  2 раза

Полного источника не было: 5 дней

 
 
 
 
Автор Сообщение

BiOS ®

Стаж: 2 года 7 месяцев

Сообщений: 1730

Откуда: Raccoon City


Пост 06-Фев-2016 02:29

[Цитировать]

Люцифер / Lucifer - Производство: США
Жанр: фэнтези
Режиссер: Лен Уайзман
Актеры: Том Эллис, Лорен Джерман, Кевин Алехандро, Д.Б. Вудсайд, Лесли-Энн Брандт, Рэйчел Харрис, Кайла Юэлл, Скарлет Эстевез, Джонатан Салисбери, Мэтт Корбой и др.
Описание:
Заскучавший и несчастный повелитель преисподней, Люцифер Морнингстар оставил свой престол и отправился в современный Лос-Анджелес, где основал ночной клуб «Lux». Очаровательный, харизматичный и дьявольски привлекательный Люцифер наслаждается своим отдыхом — вином, женщинами и музыкой — пока красивая поп-звезда не оказывается убитой на пороге его клуба…
Дата мировой премьеры: 25 января 2016
Продолжительность: ~00:44:00 серия
Качество видео: WEB-DL 1080p
Перевод: Многоголосый закадровый, профессиональный - NewStudio
Автор перевода: Григорий Сенин
Видео: AVC/H.264, 1916x1076 (16:9), ~5000 kb/s
Аудио Rus: AC-3, 48,0 kHz, 6 ch, 384 kb/s - многоголосый закадровый
Аудио Eng: AC-3, 48,0 kHz, 6 ch, 640 kb/s - оригинал

MediaInfo

Код:
Общее
Уникальный идентификатор                 : 205515451019082660558927399242583009709 (0x9A9CD60BA5248D059DDFD7AAED9869AD)
Полное имя                               : А:\Lucifer.s01e01.WEBDL.1080p.NewStudio.TV.mkv
Формат                                   : Matroska
Версия формата                           : Version 4 / Version 2
Размер файла                             : 1,84 Гбайт
Продолжительность                        : 44 м.
Общий поток                              : 5868 Кбит/сек
Дата кодирования                         : UTC 2016-01-30 21:07:12
Программа кодирования                    : mkvmerge v8.2.0 ('World of Adventure') 32bit
Библиотека кодирования                   : libebml v1.3.1 + libmatroska v1.4.2
Видео
Идентификатор                            : 1
Формат                                   : AVC
Формат/Информация                        : Advanced Video Codec
Профиль формата                          : High@L4
Параметр CABAC формата                   : Да
Параметр ReFrames формата                : 4 кадра
Идентификатор кодека                     : V_MPEG4/ISO/AVC
Продолжительность                        : 44 м.
Битрейт                                  : 5097 Кбит/сек
Ширина                                   : 1916 пикселей
Высота                                   : 1076 пикселей
Соотношение сторон                       : 16:9
Режим частоты кадров                     : Постоянный
Частота кадров                           : 23,976 (23976/1000) кадра/сек
Цветовое пространство                    : YUV
Субдискретизация насыщенности            : 4:2:0
Битовая глубина                          : 8 бит
Тип развёртки                            : Прогрессивная
Бит/(Пиксели*Кадры)                      : 0.103
Размер потока                            : 1,60 Гбайт (87%)
Язык                                     : English
Default                                  : Да
Forced                                   : Нет
Цветовой диапазон                        : Limited
Основные цвета                           : BT.709
Характеристики трансфера                 : BT.709
Коэффициенты матрицы                     : BT.709
Аудио #1
Идентификатор                            : 2
Формат                                   : AC-3
Формат/Информация                        : Audio Coding 3
Расширение режима                        : CM (complete main)
Параметр Endianness формата              : Big
Идентификатор кодека                     : A_AC3
Продолжительность                        : 44 м.
Вид битрейта                             : Постоянный
Битрейт                                  : 384 Кбит/сек
Каналы                                   : 6 каналов
Расположение каналов                     : Front: L C R, Side: L R, LFE
Частота                                  : 48,0 КГц
Частота кадров                           : 31,250 кадров/сек (1536 spf)
Метод сжатия                             : С потерями
Размер потока                            : 123 Мбайт (7%)
Заголовок                                : NewStudio.TV
Язык                                     : Russian
Default                                  : Да
Forced                                   : Нет
Аудио #2
Идентификатор                            : 3
Формат                                   : AC-3
Формат/Информация                        : Audio Coding 3
Расширение режима                        : CM (complete main)
Параметр Endianness формата              : Big
Идентификатор кодека                     : A_AC3
Продолжительность                        : 44 м.
Вид битрейта                             : Постоянный
Битрейт                                  : 384 Кбит/сек
Каналы                                   : 6 каналов
Расположение каналов                     : Front: L C R, Side: L R, LFE
Частота                                  : 48,0 КГц
Частота кадров                           : 31,250 кадров/сек (1536 spf)
Метод сжатия                             : С потерями
Размер потока                            : 123 Мбайт (7%)
Язык                                     : English
Default                                  : Нет
Forced                                   : Нет
-Скриншоты:


Смотреть онлайн

[trackeroc.ru].11500.torrent 
Торрент: Зарегистрирован   [ 2016-05-07 23:57 ]

Скачать торрент

117 KB

Статус: проверено
Скачан: 3 раз
Размер: 23.01 GB
 

Admin (06-фев-16), Dreamka (06-фев-16)
Похожие торренты
Форум Тема Автор Размер
Зарубежные сериалы Люцифер / Lucifer [сезон 2 серии 1-10 из 13] Admin 5.39 GB
Зарубежные сериалы Люцифер / Lucifer (2016) WEB-DL (сезон 1, серии 1-13) Admin 6.84 GB

_________________
[Профиль] [ЛС]
Показать сообщения:    
Ответить на тему

Текущее время: Сегодня 00:36

Часовой пояс: GMT + 4



Вы не можете начинать темы
Вы не можете отвечать на сообщения
Вы не можете редактировать свои сообщения
Вы не можете удалять свои сообщения
Вы не можете голосовать в опросах
Вы не можете прикреплять файлы к сообщениям
Вы можете скачивать файлы