Madonna - MDNA Tour (Live in Abu Dhabi) (2012) CAMRip

Ответить на тему

Статистика раздачи [Обновить пиров]
Размер:  2.89 GB   |    Зарегистрирован:  1 год   |    Скачан:  0 раз

Полного источника не было: Никогда

 
 
 
 
Автор Сообщение

BiOS ®

Стаж: 2 года 7 месяцев

Сообщений: 1732

Откуда: Raccoon City


Пост 13-Ноя-2015 02:56

[Цитировать]

Madonna - MDNA Tour (Live in Abu Dhabi)- Год выпуска: 2012
Производство: ОАЭ
Жанр: Pop, Dance, Rock, Electro-Описание: Любительская запись концерта Мадонны в Абу-Даби в рамках тура - "MDNA Tour".-Продолжительность: 01:39:21
Качество видео: CAMRip-Видеокодек: XviD
Битрейт видео: 3961 kbps
Размер кадра: 720x480
Аудио: MP3, 2.0, 192 kbps
Сэмпл: Скачать-

Треклист:

Треклист:
01. "Intro: Act of Contrition"
02. "Girl Gone Wild" (содержит элементы из "Material Girl", а также отрывки из "Give It 2 Me")
03. "Revolver"
04. "Gang Bang"
05. "Papa Don't Preach"
06. "Hung Up" (содержит элементы из "Girl Gone Wild")
07. "I Don't Give A"
08. "Best Friend" (Видеоинтерлюдия) (содержит элементы из "Heartbeat")
09. "Express Yourself" (С элементами из "Born This Way" и "She's Not Me")
10. "Give Me All Your Luvin’" (Just Blaze Bionic Dub)
11. "Turn Up the Radio"
12. "Open Your Heart" (содержит элементы "Sagarra Jo")
13. "Masterpiece"
14. "Justify My Love" (Видеоинтерлюдия)
15. "Vogue"
16. "Candy Shop" (содержит элементы из "Erotica")
17. "Human Nature"
18. "Like a Virgin" (содержит элементы из "Evgeni’s Waltz")
19. "Nobody Knows Me" (Видеоинтерлюдия)
20. "I'm Addicted"
21. "I'm a Sinner" (содержит элементы из "Cyber-Raga")
22. "Like a Prayer"
23. "Celebration" (содержит элементы из "Girl Gone Wild")
-

MediaInfo:

Код:
Полное имя                               : Z:\Концерты\Madonna - MDNA Tour (Live in Abu Dhabi) (2012) CAMRip.AVI
Формат                                   : AVI
Формат/Информация                        : Audio Video Interleave
Профиль формата                          : OpenDML
Размер файла                             : 2,89 Гбайт
Продолжительность                        : 1 ч. 39 м.
Общий поток                              : 4158 Кбит/сек
Видео
Идентификатор                            : 0
Формат                                   : MPEG-4 Visual
Профиль формата                          : Simple@L3
Параметр BVOP формата                    : Нет
Параметр QPel формата                    : Нет
Параметр GMC формата                     : Без точки перехода
Параметр матрицы формата                 : Default (H.263)
Идентификатор кодека                     : XVID
Идентификатор кодека/Подсказка           : XviD
Продолжительность                        : 1 ч. 39 м.
Битрейт                                  : 3961 Кбит/сек
Ширина                                   : 720 пикселей
Высота                                   : 480 пикселей
Соотношение сторон                       : 3:2
Частота кадров                           : 25,000 кадров/сек
Стандарт вещания                         : NTSC
Цветовое пространство                    : YUV
Субдискретизация насыщенности            : 4:2:0
Битовая глубина                          : 8 бит
Тип развёртки                            : Прогрессивная
Метод сжатия                             : С потерями
Бит/(Пиксели*Кадры)                      : 0.458
Размер потока                            : 2,75 Гбайт (95%)
Библиотека кодирования                   : ZJMedia MPEG Encoder
Аудио
Идентификатор                            : 1
Формат                                   : MPEG Audio
Версия формата                           : Version 1
Профиль формата                          : Layer 3
Режим                                    : Joint stereo
Расширение режима                        : MS Stereo
Идентификатор кодека                     : 55
Идентификатор кодека/Подсказка           : MP3
Продолжительность                        : 1 ч. 39 м.
Вид битрейта                             : Постоянный
Битрейт                                  : 192 Кбит/сек
Каналы                                   : 2 канала
Частота                                  : 44,1 КГц
Метод сжатия                             : С потерями
Размер потока                            : 136 Мбайт (5%)
Выравнивание                             : Разделение по промежуткам
Продолжительность промежутка             : 1000  мс. (25,00 видеокадров)
-Скриншоты:



[trackeroc.ru].9713.torrent 
 СЕРЕБРЯНАЯ РАЗДАЧА! СКАЧАННОЕ ЗАСЧИТЫВАЕТСЯ ТОЛЬКО НАПОЛОВИНУ! 
Торрент: Зарегистрирован   [ 2015-11-13 03:01 ]

Скачать торрент

15 KB

Статус: проверено
Скачан: 24 раз
Размер: 2.89 GB
 

Похожие торренты
Форум Тема Автор Размер
Видео клипы Madonna The Confessions Tour Live From London (2006) DVDRip BiOS 2.1 GB

_________________
[Профиль] [ЛС]
Показать сообщения:    
Ответить на тему

Текущее время: Сегодня 03:51

Часовой пояс: GMT + 4



Вы не можете начинать темы
Вы не можете отвечать на сообщения
Вы не можете редактировать свои сообщения
Вы не можете удалять свои сообщения
Вы не можете голосовать в опросах
Вы не можете прикреплять файлы к сообщениям
Вы можете скачивать файлы