Madonna The Confessions Tour Live From London (2006) DVDRip

Ответить на тему

Статистика раздачи [Обновить пиров]
Размер:  2.1 GB   |    Зарегистрирован:  1 год   |    Скачан:  2 раза

Полного источника не было: 14 дней

 
 
 
 
Автор Сообщение

BiOS ®

Стаж: 2 года 7 месяцев

Сообщений: 1738

Откуда: Raccoon City


Пост 13-Ноя-2015 03:10

[Цитировать]

Madonna "The Confessions Tour Live From London"- Год выпуска: 2006
Жанр: Pop, Dance, Rock, Electro-Описание: Запись концерта Мадонны сделанная в Лондоне в рамках тура "Confessions"-Режиссер: Йонас Акерлунд / Jonas Akerlund-В ролях: Мадонна /Madonna/, Стюарт Прайс /Stuart Price/, Стив Сидельник /Steve Sidelnyk/, Монте Питтман /Monte Pittman/, Маркус Браун /Marcus Brown/, Донна Делори /Donna DeLory/, Ники Ричардс /Nicki Richards/...-Продолжительность: 01:27:19-Видео: AVC/Н.264, 2992 Kbps, 1280х720
Аудио: AC-3 5.1, 448 Kbps-

MediaInfo

Код:
Полное имя                               : K:\UpRG-Концерты\CONF\MadonnaConfessionsTour HDRE 1280x720 x264 DD5.1.avi
Формат                                   : AVI
Формат/Информация                        : Audio Video Interleave
Профиль формата                          : OpenDML
Размер файла                             : 2,10 Гбайт
Продолжительность                        : 1 ч. 27 м.
Общий поток                              : 3449 Кбит/сек
Программа кодирования                    : VirtualDubMod 1.5.10.1 (Build 2366/Release)
Библиотека кодирования                   : VirtualDubMod Build 2366/Release
Видео
Идентификатор                            : 0
Формат                                   : AVC
Формат/Информация                        : Advanced Video Codec
Профиль формата                          : High@L5.1
Параметр CABAC формата                   : Да
Параметр ReFrames формата                : 1 кадр
Идентификатор кодека                     : H264
Продолжительность                        : 1 ч. 27 м.
Битрейт                                  : 2992 Кбит/сек
Ширина                                   : 1280 пикселей
Высота                                   : 720 пикселей
Соотношение сторон                       : 16:9
Частота кадров                           : 23,976 кадра/сек
Цветовое пространство                    : YUV
Субдискретизация насыщенности            : 4:2:0
Битовая глубина                          : 8 бит
Тип развёртки                            : Прогрессивная
Бит/(Пиксели*Кадры)                      : 0.135
Размер потока                            : 1,83 Гбайт (87%)
Библиотека кодирования                   : x264 core 50 svn-569
Настройки программы                      : cabac=1 / ref=1 / deblock=1:0:0 / analyse=0x3:0x113 / me=hex / subme=6 / brdo=0 / mixed_ref=0 / me_range=16 / chroma_me=1 / trellis=1 / 8x8dct=1 / cqm=0 / chroma_qp_offset=0 / slices=1 / nr=0 / decimate=1 / bframes=0 / keyint=240 / keyint_min=24 / scenecut=40 / rc=2pass / bitrate=2992 / ratetol=1.0 / rceq='blurCplx^(1-qComp)' / qcomp=0.60 / qpmin=10 / qpmax=51 / qpstep=4 / cplxblur=20.0 / qblur=0.5 / ip_ratio=1.40
Аудио
Идентификатор                            : 1
Формат                                   : AC-3
Формат/Информация                        : Audio Coding 3
Расширение режима                        : CM (complete main)
Параметр Endianness формата              : Big
Идентификатор кодека                     : 2000
Продолжительность                        : 1 ч. 27 м.
Вид битрейта                             : Постоянный
Битрейт                                  : 448 Кбит/сек
Каналы                                   : 6 каналов
Расположение каналов                     : Front: L C R, Side: L R, LFE
Частота                                  : 48,0 КГц
Битовая глубина                          : 16 бит
Метод сжатия                             : С потерями
Задержка видео                           : 32 мс.
Размер потока                            : 280 Мбайт (13%)
Выравнивание                             : Разделение по промежуткам
Продолжительность промежутка             : 83  мс. (2,00 видеокадра)
Время предзагрузки промежутка            : 500  мс.
-

Треклист

Треклист:
01. Future Lovers / I Feel Love
02. Get Together
03. Like A Virgin
04. Jump
05. Live To Tell
06. Forbidden Love
07. Isaak
08. Sorry [cut]
09. Like it Or Not
10. I Love New York
11. Ray Of Light
12. Music Inferno
13. La Isla Bonita
14. Erotica
15. Hung Up
Скриншоты:


[trackeroc.ru].9714.torrent 
 СЕРЕБРЯНАЯ РАЗДАЧА! СКАЧАННОЕ ЗАСЧИТЫВАЕТСЯ ТОЛЬКО НАПОЛОВИНУ! 
Торрент: Зарегистрирован   [ 2015-11-13 03:15 ]

Скачать торрент

11 KB

Статус: проверено
Скачан: 51 раз
Размер: 2.1 GB
 

Похожие торренты
Форум Тема Автор Размер
Видео клипы Madonna - MDNA Tour (Live in Abu Dhabi) (2012) CAMRip BiOS 2.89 GB

_________________
[Профиль] [ЛС]
Показать сообщения:    
Ответить на тему

Текущее время: Сегодня 12:48

Часовой пояс: GMT + 4



Вы не можете начинать темы
Вы не можете отвечать на сообщения
Вы не можете редактировать свои сообщения
Вы не можете удалять свои сообщения
Вы не можете голосовать в опросах
Вы не можете прикреплять файлы к сообщениям
Вы можете скачивать файлы